<?xml version="1.0" standalone="no"?>
<!DOCTYPE svg PUBLIC "-//W3C//DTD SVG 1.1//EN" "http://www.w3.org/Graphics/SVG/1.1/DTD/svg11.dtd" >
<svg xmlns="http://www.w3.org/2000/svg">
<metadata></metadata>
<defs>
<font id="shopsharkfontregular" horiz-adv-x="4091" >
<font-face units-per-em="4096" ascent="3072" descent="-1024" />
<missing-glyph horiz-adv-x="2048" />
<glyph unicode="&#xd;" horiz-adv-x="2048" />
<glyph unicode=" "  horiz-adv-x="2048" />
<glyph unicode="&#x09;" horiz-adv-x="2048" />
<glyph unicode="&#xa0;" horiz-adv-x="2048" />
<glyph unicode="!" horiz-adv-x="4104" d="M1356 3006q229 0 422 -122q127 29 274 28q291 0 547 -110.5t446.5 -301t301 -446.5t110.5 -547q0 -86 -10 -170t-31 -166q94 -168 94 -372q0 -164 -61.5 -307.5t-170 -252t-251.5 -170t-307 -61.5q-115 0 -217.5 31t-196.5 88q-123 -25 -254 -25q-291 0 -547 111 t-446.5 301.5t-301 446.5t-110.5 546q0 82 8.5 156t24.5 147q-53 90 -82 192.5t-29 217.5q0 164 61.5 307.5t168 250t250 167.5t307.5 61zM1622 2421q-176 -66 -270 -193q-98 -123 -99 -282q0 -160 90 -283q90 -106 242 -176q74 -33 168 -59.5t201 -51.5q160 -33 258 -61 q86 -29 151 -82q53 -53 54 -135q0 -106 -107 -176q-106 -74 -282 -74q-127 0 -201 37q-41 20 -69.5 42.5t-49.5 47.5q-45 66 -82 143q-29 78 -82 123q-45 41 -123 41q-90 0 -147 -53q-57 -57 -57 -131q0 -127 90 -254q86 -131 229 -205q201 -106 504 -107q258 0 438 78 q188 74 287 217q98 135 98 312q0 143 -57 245q-53 98 -160 168q-98 66 -242 111q-143 45 -307 82q-70 16 -117 26.5t-79 18.5q-29 8 -55.5 20.5t-55.5 24.5q-49 20 -86 66q-29 37 -29 81q0 78 90 132q86 61 242 61q168 0 234 -53q70 -49 126 -156q41 -78 82 -111 q41 -41 123 -40q86 0 144 61q57 57 57 135q0 82 -41 160q-53 86 -139 156q-45 33 -102.5 63.5t-127.5 50.5q-135 41 -327 41q-238 0 -414 -61z" />
<glyph unicode="&#x22;" horiz-adv-x="4100" d="M1958 2941q29 57 90 57t90 -57l430 -877l967 -139q61 -8 82 -65q16 -61 -25 -103l-700 -684l164 -962q8 -25 -4.5 -51.5t-32.5 -43.5q-49 -37 -107 -8l-864 455l-864 -455q-57 -29 -107 8q-20 16 -32.5 43t-4.5 52l164 962l-700 684q-41 41 -25 103q20 57 82 65l967 139 l430 877v0z" />
<glyph unicode="#" horiz-adv-x="4096" />
<glyph unicode="$" horiz-adv-x="4096" d="M3383 2540q111 0 189 -78t78 -189v-1802q0 -111 -78 -188.5t-189 -77.5h-2670q-111 0 -189 77.5t-78 188.5v1802q0 111 78 189t189 78h2670zM3387 1913l-295 295l-1056 -1004l-1041 1004l-295 -295l1352 -1331z" />
<glyph unicode="%" horiz-adv-x="0" d="M2056 389l-1802 2163h3604z" />
<glyph unicode="&#x26;" horiz-adv-x="4096" d="M254 389l1802 2163l1802 -2163h-3604z" />
<glyph unicode="'" horiz-adv-x="4087" d="M2953 1499l-1798 -1499v2998z" />
<glyph unicode="(" d="M2953 0l-1798 1499l1798 1499v-2998z" />
<glyph unicode=")" horiz-adv-x="4096" d="M3473 446q78 -86 78 -188t-78 -188q-41 -41 -90 -59.5t-98 -18.5q-111 0 -184 78l-770 770q-279 -176 -619 -176q-242 0 -455 92t-370.5 249.5t-249.5 370.5t-92 455t92 455t249.5 372.5t370.5 251.5t455 92t455 -92t372.5 -251.5t252 -372.5t92.5 -455 q0 -172 -47.5 -327.5t-129.5 -291.5zM1712 1118q147 0 276.5 55.5t227.5 153.5t153.5 227t55.5 277q0 147 -55.5 276t-153.5 227.5t-227 154t-277 55.5q-147 0 -276 -55.5t-227.5 -154t-154 -227.5t-55.5 -276t55.5 -276.5t154 -227.5t227.5 -153.5t276 -55.5z" />
<glyph unicode="*" horiz-adv-x="4100" d="M2048 2437q172 0 289 -116.5t117 -288.5q0 -82 -31 -156t-86.5 -129t-129 -88t-159.5 -33t-159.5 33t-129 88t-86.5 129t-31 156q0 172 117 288.5t289 116.5zM2048 2998q201 0 377 -73.5t307 -202.5t207 -301t76 -369q0 -233 -92.5 -485t-233.5 -512t-311 -526.5 t-330 -524.5q-160 250 -330 512t-311 524.5t-233.5 518.5t-92.5 493q0 197 76 369t207 301t307 202.5t377 73.5zM2048 1376q135 0 254 51.5t209 141.5t141 208.5t51 254.5q0 135 -51 255.5t-141 209t-209 139.5t-254 51t-254 -51t-209 -139.5t-141 -209t-51 -255.5t51 -254 t141 -209t209 -141.5t254 -51.5z" />
<glyph unicode="+" horiz-adv-x="4096" d="M3473 446q78 -78 78 -186t-78 -190q-78 -78 -186.5 -78t-185.5 78l-770 770q-135 -86 -291 -133.5t-328 -47.5q-242 0 -455 92.5t-370.5 252t-249.5 372.5t-92 455t92 455t249.5 370.5t370.5 249.5t455 92t455 -92t372.5 -249.5t252 -370.5t92.5 -455 q0 -172 -47.5 -327.5t-129.5 -291.5zM2548 1831q0 172 -65.5 325.5t-178.5 266t-266.5 178t-325.5 65.5t-323.5 -65.5t-266 -178t-180 -266t-65.5 -325.5t65.5 -325.5t180 -266.5t266 -178.5t323.5 -65.5t325.5 65.5t266.5 178.5t178.5 266.5t65.5 325.5zM2228 1696v262 h-393v397h-270v-397h-389v-262h389v-393h270v393h393z" />
<glyph unicode="," horiz-adv-x="4096" d="M2621 -4h-1151v643h168v762h-168v647h1012v-1409h139v-643zM1565 2630q0 168 135 266q131 102 336 102t323 -106q123 -106 123 -262q0 -172 -127 -263q-135 -102 -323 -102q-201 0 -332 94q-135 87 -135 271z" />
<glyph unicode="-" horiz-adv-x="4104" d="M3473 446q78 -78 78 -186t-78 -190q-78 -78 -186.5 -78t-185.5 78l-770 770q-135 -86 -291 -133.5t-328 -47.5q-242 0 -455 92.5t-370.5 252t-249.5 372.5t-92 455t92 455t249.5 370.5t370.5 249.5t455 92t455 -92t372.5 -249.5t252 -370.5t92.5 -455 q0 -172 -47.5 -327.5t-129.5 -291.5zM2548 1831q0 172 -65.5 325.5t-178.5 266t-266.5 178t-325.5 65.5t-323.5 -65.5t-266 -178t-180 -266t-65.5 -325.5t65.5 -325.5t180 -266.5t266 -178.5t323.5 -65.5t325.5 65.5t266.5 178.5t178.5 266.5t65.5 325.5zM2228 1696v262 h-1052v-262h1052z" />
<glyph unicode="." horiz-adv-x="4104" d="M2052 2048q197 193 373 299.5t360 106.5q201 0 346.5 -59.5t239.5 -164t139 -246t45 -309.5q0 -152 -65.5 -299t-170 -286.5t-241.5 -266.5t-276 -237q-332 -258 -750 -488q-422 221 -754 475q-143 111 -276 238t-239.5 266.5t-170 291t-63.5 306.5q0 168 55 309.5 t157.5 246t248 164t325.5 59.5q184 0 358.5 -104.5t358.5 -301.5z" />
<glyph unicode="/" horiz-adv-x="4104" d="M3555 266q0 -115 -79.5 -192.5t-190.5 -77.5t-188.5 78t-77.5 192q0 455 -172 854.5t-471 698.5t-700.5 471t-856.5 172q-111 0 -188.5 77.5t-77.5 192.5q0 111 78 188.5t188 77.5q602 0 1089.5 -200.5t872.5 -585.5q397 -397 585.5 -882.5t188.5 -1063.5zM2589 266 q0 365 -139.5 686.5t-379 561t-561 379t-690.5 139.5q-111 0 -188.5 -78t-77.5 -189t78 -188.5t188 -77.5q258 0 481.5 -96t391.5 -264t264 -393.5t96 -479.5q0 -115 80 -192.5t190 -77.5q111 0 189 77.5t78 192.5zM553 479q0 -98 39 -186t104.5 -153.5t153.5 -104.5 t186 -39t186.5 39t154 104.5t104.5 153.5t39 186t-39 186.5t-104.5 154t-153.5 104.5t-187 39q-98 0 -186 -39t-153.5 -104.5t-104.5 -154t-39 -186.5z" />
<glyph unicode="0" horiz-adv-x="4096" d="M1864 1434q0 -127 -47.5 -235.5t-131 -190.5t-192.5 -129.5t-236 -47.5t-235.5 47.5t-190 129.5t-129 190.5t-47.5 235.5t47.5 235.5t129 192.5t190 131t235.5 47t236 -47t192.5 -131t131 -192.5t47.5 -235.5zM3457 1434q0 -127 -49 -235.5t-131 -190.5t-190.5 -129.5 t-235.5 -47.5t-235.5 47.5t-190.5 129.5t-129 190.5t-47 235.5t47 235.5t129 192.5t190.5 131t235.5 47t235.5 -47t190.5 -131t131 -192.5t49 -235.5z" />
<glyph unicode="1" horiz-adv-x="4505" d="M1642 4v1450h-364v545h364q0 233 8.5 399t43.5 276.5t108.5 176t204.5 98.5t329.5 41t485.5 8v-544q-188 0 -296.5 -8.5t-164 -35t-70 -82t-14.5 -153.5v-176h545v-545h-545v-1450h-635z" />
<glyph unicode="2" horiz-adv-x="4096" d="M2216 2884q0 -102 -94 -136q-53 -20 -106.5 -24t-106.5 -12q102 -66 145 -187t43 -248q0 -131 -41 -245q-20 -57 -75.5 -114.5t-113 -113t-100.5 -113t-43 -110.5q0 -57 58 -111q74 -66 151.5 -131t141 -139t102.5 -164t39 -200q0 -209 -106.5 -373t-299.5 -250 q-111 -49 -254 -78t-294 -29q-111 0 -221.5 18.5t-209 59.5t-176 104.5t-127.5 153.5q-78 152 -77 275q0 152 94 260t235.5 180t305 109t303.5 37q-25 66 -70 131t-53 139q-119 0 -238 32.5t-213 110.5q-102 86 -149.5 201t-47.5 237q0 176 88.5 340t239.5 254 q82 49 188.5 80t223.5 49.5t237.5 24.5t227.5 6q143 0 251.5 -8t141.5 -16zM1466 1802q20 8 32.5 10.5t21.5 6.5q12 4 16 4q-25 -8 -41 -13q-16 -4 -26.5 -8t-2.5 0q111 33 162 127t51 213q0 94 -28.5 190.5t-79.5 174.5t-121 127t-152 49h-34.5t-34.5 -8 q-111 -33 -160 -125t-49 -211q0 -94 28.5 -190.5t78 -176.5t119 -129t151.5 -49h34.5t34.5 8zM1348 369q123 0 219 34.5t161.5 94t100.5 133.5t35 147q0 135 -113 241.5t-354 106.5q-123 0 -219.5 -34.5t-162 -94t-100 -133t-34.5 -147.5q0 -135 112.5 -241.5t354.5 -106.5z M3629 2359v-225h-524v-524h-226v524h-524v225h524v529h226v-529h524z" />
<glyph unicode="3" d="M3973 1765q-57 -78 -161.5 -141t-284.5 -80q-45 -291 -203 -542.5t-393.5 -442t-530.5 -311.5t-610 -154q-106 -12 -209 -12q-385 0 -755.5 149.5t-669.5 481.5q131 -106 292.5 -157.5t333.5 -51.5q221 0 436.5 94t370.5 295q-20 -8 -36.5 -8h-36.5q-94 0 -156 45 t-62 110q0 45 31 88t109 84q-70 -12 -123 -12q-147 0 -239.5 65.5t-137.5 135.5q41 57 98.5 86t155.5 45q-225 33 -329.5 123t-141.5 221q57 20 124.5 36.5t108.5 16.5q-102 41 -173.5 96.5t-117 117t-65.5 123t-20 118.5q356 -94 599.5 -178t436.5 -162q70 -29 147.5 -84 t171.5 -125q37 143 84 286.5t108.5 274.5t139.5 244t184 194q-8 -70 -49 -122q119 131 291 176q-4 -61 -67.5 -104.5t-120.5 -76.5q16 8 57 29t90 43.5t98.5 41t81.5 18.5q29 0 41 -21q4 -8 4 -20q0 -25 -30.5 -47.5t-71.5 -41t-80 -33t-51 -18.5l-86 -41q61 12 119 13 q123 0 239.5 -45t219 -121t182.5 -182.5t125 -229.5l32 -86q20 -8 41 -8h45q49 0 104.5 10t104.5 24.5t90 33t66 34.5q-33 -106 -133.5 -184t-263.5 -111q45 -12 102 -18t119 -6q127 -1 225 24z" />
<glyph unicode="4" horiz-adv-x="4100" d="M549 0v2089h651v-2089h-651zM872 3002q102 0 185 -45q78 -45 119 -114q45 -78 45 -172q0 -86 -45 -164q-45 -74 -119 -115q-82 -45 -189 -45q-98 0 -176 45q-86 45 -119 115q-41 70 -41 164q0 102 41 172q45 74 119 114q78 45 180 45zM1593 1425q0 94 -2 186.5t-6 174.5 q-8 176 -12 303h565l29 -287h16q29 53 86 111q61 61 139 106q78 53 185 86q111 33 233 33q168 0 299 -53q135 -53 238 -164q102 -115 155 -283q57 -172 58 -397v-1241h-651v1159q0 143 -33 238q-33 98 -107 155q-66 53 -188 62q-86 -4 -156 -37q-66 -37 -110 -94 q-20 -25 -37 -53.5t-29 -61.5q-8 -25 -16 -74q-4 -20 -6 -42.5t-2 -47.5v-1204h-648v1425z" />
<glyph unicode="5" horiz-adv-x="4100" d="M3494 2105q-16 -471 -660 -1290q-659 -856 -1114 -856q-279 0 -475 520q-66 242 -129 479.5t-133 475.5q-143 524 -311 524q-29 0 -250 -152l-152 193q119 106 236 210.5t235 211.5q307 270 476 291l45 4q336 0 421 -521q45 -299 76 -483t51 -258q111 -492 242 -491 q98 0 303 319q201 319 221 487l4 50q0 229 -225 229q-106 0 -237 -53q229 758 876 758h33q467 -20 467 -578v-70z" />
<glyph unicode="6" horiz-adv-x="4096" d="M2052 3080q328 0 614.5 -123t501.5 -338t340 -503.5t125 -616.5t-125 -614.5t-340 -501.5t-501.5 -340t-614.5 -125q-119 0 -231.5 16.5t-218.5 49.5q45 70 90 157.5t69 182.5q8 25 24.5 96.5t37.5 144.5q20 86 49 193q45 -82 151.5 -139.5t237.5 -57.5q188 0 346 82 t270.5 227.5t174 342t61.5 429.5q0 176 -71.5 340t-203 291t-315.5 203t-409 76q-283 0 -496 -92.5t-354.5 -235.5t-211 -319t-69.5 -344q0 -205 78 -369t246 -234q16 -8 28 -8q41 0 49 49q8 20 16.5 61.5t16.5 65.5q8 25 8 33q0 20 -32 53q-45 57 -74 131t-29 181 q0 147 53.5 284.5t156 241.5t245.5 167.5t323 63.5q319 0 489.5 -174t170.5 -432q0 -172 -37 -325.5t-102.5 -268t-157.5 -182.5t-207 -68q-106 0 -182 70t-76 176q0 20 8 62q16 74 43 151.5t47.5 151.5t37 139.5t16.5 118.5q0 94 -53.5 165.5t-163.5 71.5 q-127 0 -215.5 -116.5t-88.5 -292.5q0 -57 8.5 -102.5t16.5 -77.5q12 -41 25 -70q-49 -209 -91 -385q-33 -152 -67.5 -291t-42.5 -188q-20 -70 -24.5 -145.5t-4.5 -145.5v-70q-209 90 -383 237.5t-299 334t-194.5 409.5t-69.5 465q0 328 125 616.5t340 503.5t501.5 338 t614.5 123z" />
<glyph unicode="7" horiz-adv-x="4096" d="M2396 1982h74q25 4 57 25q41 20 90 78v-94h164v868h-164v-659q-16 -25 -49 -46q-29 -20 -45 -20q-20 0 -33 12q-8 25 -8 45v668h-164v-729q0 -66 29 -115q20 -29 49 -33zM1511 1995h-180v463l-217 708h184l115 -471l127 471h184l-213 -688v-483zM2122 2822 q-37 45 -115 57h-115q-61 -12 -114 -57q-61 -70 -62 -176v-438q0 -111 62 -172q41 -49 110 -62h119q61 12 115 58q61 61 61 172v446q0 111 -61 172zM2019 2589v-394q0 -37 -20 -57t-53 -20q-29 0 -50 20q-16 25 -16 57v467q0 29 16 54q16 20 50 20q33 0 53 -20t20 -54v-73z M2322 922q-25 0 -36 -9q-12 -4 -33 -24v-541q12 -16 37 -33q25 -8 41 -8q25 0 45 21q12 16 12 57v446q0 49 -16 70q-21 21 -50 21zM2912 922q-37 0 -53 -25q-16 -20 -16 -78v-90h139v90q0 57 -16 78q-13 25 -54 25zM3260 1524q-61 57 -139 92t-168 35h-1806q-90 0 -170 -35 t-137 -92t-92 -137t-35 -170v-943q0 -90 34.5 -169.5t92.5 -137.5q57 -57 137 -92t170 -35h1806q90 0 168 35t139 92q57 57 92 137t35 170v943q0 90 -35 170t-92 137zM1286 184h-180v1004h-188v172h557v-172h-189v-1004zM1933 184h-159v95q-45 -53 -95 -82q-57 -29 -94 -29 q-53 0 -82 41q-29 33 -28 115v725h159v-664q0 -29 8 -45q12 -12 33 -12q25 0 45 16q29 16 54 49v656h159v-865zM2552 360q0 -90 -37 -139t-111 -49q-49 0 -82 16q-20 12 -36.5 26.5t-32.5 35.5v-66h-164v1176h164v-381q16 20 32.5 34.5t36.5 26.5q41 20 74 21q74 0 119 -57 q37 -57 37 -160v-484zM3150 594h-307v-164q0 -66 16 -94q12 -25 53 -25q37 0 58 21q12 25 12 98v62h168v-66q0 -135 -62 -201q-61 -66 -180 -65q-111 0 -172 69q-61 74 -61 197v389q0 115 69 184q66 74 176 74q111 0 168 -65q61 -70 62 -193v-221z" />
<glyph unicode="8" horiz-adv-x="4096" d="M2048 3080q250 0 475 -71.5t418 -202.5v-1520q0 -78 -55.5 -133t-137.5 -55t-137 55t-55 133v459q0 270 -121 391t-301 121h-782q-106 0 -198.5 -33t-164 -92t-112.5 -145t-41 -193q0 -57 14 -120.5t55 -121t110.5 -104.5t180.5 -68q90 -16 153.5 -24t104.5 -22.5 t59.5 -39t18.5 -73.5q0 -45 -24.5 -70t-67.5 -37t-104.5 -14t-131.5 -2h-688q-25 94 -39 194.5t-14 202.5q0 328 125 616.5t340 503.5t503.5 340t616.5 125zM3301 2470v-1172q0 -131 -47 -229t-122.5 -161.5t-176 -96.5t-207.5 -33q-106 0 -206.5 33t-176 96.5t-123 161.5 t-47.5 229v480q0 53 -26.5 88t-67.5 51t-92 22.5t-100 6.5h-230h-254q-115 0 -174 -31t-59 -109q0 -53 51 -73.5t129 -35t168 -30.5t168 -61t129 -131t51 -238q0 -213 -157.5 -336t-403.5 -123h-692q98 -193 245.5 -352.5t330 -274t395.5 -176t442 -61.5q328 0 616.5 125 t503.5 340t340 501.5t125 614.5q0 279 -88 524.5t-244 450.5z" />
<glyph unicode="9" horiz-adv-x="4096" d="M1782 2130q0 33 20 41q8 4 21 4h966v-1688q0 -37 -24 -45q-12 -8 -21 -4h-962v230q0 29 20 41q8 4 21 8h594v164h-635v1249zM2146 1159h226q8 -4 20 4q25 8 25 45v688h-234q-8 0 -22.5 -6t-14.5 -39v-692zM3924 2175v-1688q0 -37 -21 -45q-12 -8 -20 -4h-967v230 q0 29 21 41q8 4 20 8h594v164h-635v1249q0 33 21 41q8 4 20 4h967zM3551 1896h-229q-8 0 -22.5 -6t-14.5 -39v-692h225q8 -4 21 4q20 8 20 45v688zM791 2609q0 33 20 41q12 4 25 4h331v-1724q0 -37 -24 -45q-12 -8 -21 -4h-962v1249q0 33 20 41q8 4 21 4h590v434zM795 1896 h-234q-8 0 -22.5 -6t-14.5 -39v-692h226q8 -4 20 4q25 8 25 45v688zM1278 2609q0 33 20 41q12 4 25 4h328v-229q0 -37 -21 -45q-12 -8 -20 -4h-332v233zM1278 2130q0 33 20 41q12 4 25 4h328v-1245q0 -37 -21 -45q-12 -8 -20 -4h-332v1249z" />
<glyph unicode=":" horiz-adv-x="4112" d="M3260 958q106 0 184.5 -77.5t78.5 -184.5q0 -106 -78 -184t-185 -78q-106 0 -184 78t-78 184t78 184t184 78zM3260 582q45 0 80 34.5t35 79.5q0 49 -35 82t-80 33q-49 0 -81.5 -33t-32.5 -82q0 -45 32.5 -79.5t81.5 -34.5zM885 958q111 0 186.5 -77.5t75.5 -184.5 q0 -106 -76 -184t-186 -78q-106 0 -184 78t-78 184t78 184t184 78zM885 582q49 0 81.5 34.5t32.5 79.5q0 49 -32.5 82t-81.5 33q-45 0 -80 -33t-35 -82q0 -45 35 -79.5t80 -34.5zM3912 1389q8 -41 8 -111v-152q0 -61 -2 -118.5t-2 -102.5v-102q0 -33 -26.5 -57.5t-65.5 -45 t-80 -35t-70 -18.5q4 16 4 49q0 86 -32.5 162t-90 133.5t-133.5 90t-162 32.5t-161.5 -32.5t-133 -90t-90 -133.5t-32.5 -162q0 -37 4 -53h-181v1462h668q66 0 109 -12t82 -47t77.5 -96.5t96.5 -159.5q57 -90 102 -164q41 -66 72 -133t39 -104zM3629 1454q-20 78 -61 168 q-20 45 -45 94q-29 61 -51.5 102.5t-45 68t-51.5 36.5t-74 10h-413v-479h741zM2335 2687q70 0 123 -53.5t53 -126.5v-1872h-1213q8 41 9 61q0 86 -33 162t-90.5 133.5t-135 90t-163.5 32.5t-162 -32.5t-133.5 -90t-90 -133.5t-32.5 -162q0 -41 4 -61h-319v1872q0 74 53 127 t127 53h2003z" />
<glyph unicode=";" horiz-adv-x="4104" d="M2916 172h-233v229h233v-229zM3551 1094v-1094h-540v545h-336v524h-213v-1069h-275v1364h815v-270h549zM3432 983h-229v-233h229v233zM1389 2163h-324v323h324v-323zM3035 2163h-323v323h323v-323zM1393 520h-324v324h324v-324zM3555 3002v-1364h-1372v1364h1372z M3310 2757h-881v-877h881v877zM1917 3002v-1364h-1372v1364h1372zM1671 2757h-880v-877h880v877zM1917 1364v-1364h-1372v1364h1372zM1671 1118h-880v-876h880v876z" />
<glyph unicode="&#x3c;" d="M2802 3047q156 0 295 -59t241.5 -161.5t161.5 -242t59 -294.5v-1528q0 -156 -59 -295t-161.5 -241.5t-242 -162t-294.5 -59.5h-1516q-156 0 -295 59.5t-241.5 162t-162 241.5t-59.5 295v1528q0 156 59.5 295t162 241.5t241.5 161.5t295 59h1516zM1286 2769 q-98 0 -184 -39t-151.5 -102.5t-102.5 -151.5t-37 -186v-258h831q90 61 195 96t223 35q119 0 223.5 -35t190.5 -96h803v258q0 98 -37 186t-102.5 151.5t-151.5 102.5t-184 39h-1516zM2359 1446q0 123 -88 209t-211 86q-127 0 -213 -86t-86 -209q0 -127 86 -213t213 -86 q123 0 211 86t88 213zM2802 287q98 0 184 36.5t151.5 102.5t102.5 152t37 184v987h-565q66 -152 65 -303q0 -147 -57.5 -278.5t-153.5 -229.5t-227 -155.5t-279 -57.5q-147 0 -278 57.5t-229.5 155.5t-156 229t-57.5 279q0 156 70 303h-598v-987q0 -98 37 -184t102.5 -152 t151.5 -102.5t184 -36.5h1516zM3060 2253q0 -33 -27 -59.5t-59 -26.5h-258q-37 0 -61.5 26.5t-24.5 59.5v258q0 37 24.5 61.5t61.5 24.5h258q33 0 59.5 -24.5t26.5 -61.5v-258z" />
<glyph unicode="=" horiz-adv-x="4096" d="M2449 3002q98 0 182.5 -36.5t150 -102t102 -149.5t36.5 -183v-2064q0 -98 -36.5 -182t-102 -149.5t-149.5 -102.5t-183 -37h-802q-98 0 -182.5 37t-150 102.5t-102 149.5t-36.5 182v2064q0 98 36.5 182.5t102 150t149.5 102t183 36.5h802zM2290 2814q-66 0 -66 -66 t66 -65q66 0 65 65q1 66 -65 66zM2048 2814q-66 0 -66 -66t66 -65q66 0 66 65q0 66 -66 66zM1806 2814q-66 0 -65 -66q0 -66 65 -65q66 0 66 65q0 66 -66 66zM2273 242q33 0 55.5 18.5t22.5 42.5q0 29 -22.5 47.5t-55.5 18.5h-450q-33 0 -55.5 -18.5t-22.5 -47.5 q0 -25 22.5 -43t55.5 -18h450zM2761 2507h-1426v-1934h1426v1934z" />
<glyph unicode="&#x3e;" d="M3752 1642q0 -131 -57.5 -243.5t-151.5 -190.5l4 -24q0 -246 -118.5 -461t-321.5 -375t-475.5 -252t-583.5 -92t-583.5 92t-475.5 252t-321.5 375t-118.5 461v16q-98 78 -157.5 192.5t-59.5 249.5q0 115 41 215.5t110.5 174t163.5 116.5t201 43q139 0 270 -86 q324 201 746 246l200 811l574 -192q45 66 114.5 104.5t151.5 38.5q131 0 227.5 -96.5t96.5 -227.5q0 -135 -96.5 -229t-227.5 -94q-119 0 -207 73.5t-112 184.5l-344 119l-119 -484q242 -12 456.5 -77.5t395.5 -172.5q57 37 124.5 59.5t141.5 22.5q106 0 198.5 -43 t162 -116.5t110.5 -174t41 -215.5zM3006 2789q0 45 -28.5 74t-73.5 29t-75.5 -29t-30.5 -74t30.5 -75.5t75.5 -30.5t73.5 30.5t28.5 75.5zM3166 1966q238 -213 332 -487q41 74 41 163q0 139 -88 235.5t-211 96.5q-33 0 -74 -8zM848 1974q-127 0 -213 -96t-86 -236 q0 -98 45 -176q86 283 332 496q-37 12 -78 12zM2048 217q246 0 467 65.5t391 180.5t278.5 272.5t137.5 337.5q4 29 6 55.5t2 55.5v16q-4 209 -116.5 387t-309.5 309q-41 29 -90 58q-156 90 -346.5 139t-399.5 53l-4 -12l-45 12q-209 -4 -399 -55t-346 -141 q-25 -12 -47.5 -26.5t-42.5 -27.5q-172 -119 -297 -301t-125 -411q0 -33 2 -59.5t6 -55.5q29 -180 139.5 -335.5t280.5 -270.5t391 -180.5t467 -65.5zM1618 1184q-90 0 -151.5 61.5t-61.5 151.5t61.5 151.5t151.5 61.5t151.5 -61.5t61.5 -151.5t-61.5 -151.5t-151.5 -61.5z M2474 1610q90 0 151.5 -61.5t61.5 -151.5t-61.5 -151.5t-151.5 -61.5t-151.5 61.5t-61.5 151.5t61.5 151.5t151.5 61.5zM2470 836q37 25 82 24q70 0 106 -49q29 -33 29 -78q0 -66 -49 -102q-33 -16 -45 -29q-254 -168 -545 -168q-324 0 -594 197q-16 12 -24 33 q-25 29 -25 69q0 45 29 78q37 49 106 49q45 0 82 -24q94 -74 202.5 -111t219.5 -37q229 1 426 148z" />
<glyph unicode="?" horiz-adv-x="4096" d="M2929 3002q106 0 180 -73.5t74 -180.5v-2498q0 -106 -74 -178t-180 -72h-1745q-106 0 -180 71.5t-74 178.5v2498q0 106 73.5 180t180.5 74h1745zM2040 123q37 0 61.5 26.5t24.5 59.5q0 37 -24.5 63.5t-61.5 26.5t-61.5 -26.5t-24.5 -63.5q0 -33 24.5 -59.5t61.5 -26.5z M3027 2826h-1946v-2425h1946v2425z" />
<glyph unicode="@" horiz-adv-x="4096" d="M2363 2966q33 33 86 32q57 0 95 -41l630 -696l-1986 -1802l-631 700q-33 41 -33 86q0 53 41 90zM3371 2044l184 -201q33 -41 33 -82q0 -61 -45 -98l-1798 -1630q-41 -33 -82 -33q-53 0 -94 41l-185 205z" />
<glyph unicode="A" horiz-adv-x="4104" d="M4096 1769q-37 -53 -82 -98q-41 -37 -102.5 -71.5t-143.5 -38.5q33 -41 43.5 -84t10.5 -88q0 -33 -4.5 -66t-12.5 -53q-8 -29 -16 -49l-107 28l-57 -86q-70 12 -164 25q-82 8 -198.5 16t-260.5 8q-242 0 -551 -30.5t-673 -120.5q-295 -74 -567.5 -180.5t-485.5 -204.5 q-250 -115 -471 -242q12 25 29 45q8 20 18 41t10 37q0 25 -20 25q-16 4 -74 4q-66 0 -137.5 20.5t-87.5 114.5v20q0 53 45 100.5t110.5 86.5t143.5 69.5t143.5 51t106.5 33t37 12.5q-143 8 -219 61t-76 127t65 139h-24q-29 0 -68 4.5t-71.5 14.5t-59.5 28.5t-31 51.5 q0 49 53.5 83.5t119 59.5t116.5 37t47 12q-82 8 -121 41t-39 74q0 70 103 123q127 61 340 85.5t565 32.5q74 4 184.5 6.5t227 4.5t223 4t176.5 2q66 0 88.5 -24.5t22.5 -53.5q0 -37 -25 -53q156 -25 248 -57.5t162 -77.5q131 4 270 6t283 2q287 0 544.5 -12.5t413.5 -45.5z M1876 2048l-115 -238l-73 -49l151 17l41 82l111 8q53 8 88 36.5t55 69.5q4 8 8 18.5t4 18.5q0 41 -65 41zM1671 2040q-25 0 -55.5 -6t-65 -22.5t-69.5 -47.5t-60 -84q-20 -41 -20 -78q0 -41 28.5 -51t61.5 -10h33q25 0 55.5 6t63 22.5t67.5 47t59 88.5q25 49 25 77 q0 37 -26.5 49.5t-59.5 12.5zM1143 1876l74 135q-45 -4 -82 -6t-70 -6q-37 -4 -70 -8l33 -41l-184 -324q29 8 74 18.5t102 22.5l78 131l135 21l-70 -123l197 33l-21 32l127 262h-57q-29 0 -63.5 -2t-75.5 -6l37 -69l-29 -50zM184 1540q0 -57 41 -71.5t86 -14.5q25 0 41.5 2 t24.5 2q12 4 81.5 28.5t147.5 53.5l205 74q8 12 16 28q8 12 14.5 26.5t6.5 35.5l-4 20q-12 49 -51 74t-72 37q-20 8 -67.5 24.5t-51.5 36.5q0 29 78 41q20 4 32.5 4.5t24.5 0.5h25l-4 -58l262 135q-111 -8 -217 -20q-90 -8 -180.5 -20.5t-143.5 -32.5q-70 -29 -90 -55.5 t-20 -47.5v-16q0 -4 4 -4q0 -4 18.5 -24.5t128.5 -53.5q66 -16 86.5 -41t20.5 -45q0 -12 -9 -29q-4 -8 -8 -12l-213 -66q-29 0 -28 21q0 25 37 61q45 53 65.5 63.5t24.5 10.5q-4 0 -53.5 -10t-106.5 -33t-104.5 -53.5t-47.5 -71.5zM1212 954q12 25 25 50q8 20 18.5 46.5 t10.5 59.5q0 16 -9 49q-25 86 -98.5 123t-130.5 57q-16 4 -51 14.5t-72 23t-63.5 26.5t-30.5 35q0 53 131 78q49 12 86 14t66 2l-9 -107l455 275q-205 -25 -389 -58q-78 -12 -160 -28.5t-157.5 -34.5t-141 -36.5t-110.5 -39.5q-115 -49 -148 -100t-33 -84q0 -20 4.5 -28.5 t4.5 -16.5q0 -4 8 -16.5t36.5 -26.5t80 -34.5t145.5 -37.5q123 -25 160 -65.5t37 -81.5q0 -16 -4.5 -30.5t-8.5 -23.5q-4 -12 -8 -20q-98 -33 -172 -61q-66 -25 -121 -45.5t-63 -24.5q-4 0 -10.5 -2t-14.5 -2q-16 0 -30.5 6t-14.5 27q0 16 12.5 42.5t44.5 67.5 q78 94 113 119t39 25q-4 0 -45 -12.5t-100.5 -33t-127 -49t-125 -67.5t-96.5 -84t-39 -94q8 -86 65.5 -113t127.5 -27q57 0 102 8.5t58 12.5q12 4 51 18.5t94 39t121 53t135 57.5q159 69 352 155zM3617 1606q111 4 178.5 26.5t104 47t49 47t16.5 30.5q-37 4 -78 12 q-33 4 -78 8.5t-86 4.5q-53 -45 -108.5 -84t-100.5 -43l70 127h-53h-59.5t-47.5 -4l-176 -320q0 37 -10 57.5t-22.5 33t-20.5 18.5t-4 6q8 0 28.5 8t41 24.5t37 39t16.5 55.5q-4 29 -24.5 47t-45.5 26.5t-47.5 12.5t-34.5 4q-33 4 -76 4h-92t-96 -2t-84 -2h-86l74 -139 l-62 -140q-8 33 -26.5 84.5t-61.5 104.5t-118.5 104t-190.5 84q94 -61 135 -151q-33 -74 -104.5 -147.5t-178.5 -168.5l140 340q-49 -4 -103 -12q-45 -8 -110.5 -14t-139.5 -15l74 -118l-45 -95l-242 -49l123 250q-78 -12 -145.5 -22.5t-124.5 -18.5l-123 -20l66 -70 l-295 -598q45 20 131 45t180 49l119 246l242 49l-111 -229q57 16 108.5 28.5t92.5 20.5l82 20l65 13l-41 57l21 16q8 4 24 21l12 8q94 66 196.5 143.5t148.5 135.5q16 -49 16 -107q0 -94 -33 -151.5t-45 -77.5l201 32q33 4 67.5 8.5t71.5 8.5l66 147q12 0 28 4q33 8 62 9 q41 0 77.5 -16.5t36.5 -61.5q0 -33 -16 -70l74 4l78 -4q25 0 55.5 -2t71.5 -6l106 209q25 0 41 -17q16 -12 30.5 -36.5t14.5 -69.5q0 -49 -16 -102q53 -8 100 -16.5t92 -16.5q4 20 12 45q8 20 12.5 44.5t4.5 57.5q0 57 -26.5 113t-104.5 76zM3150 1683q0 -8 -4 -26.5 t-22.5 -36.5t-53.5 -30.5t-96 -12.5h-29l49 111z" />
<glyph unicode="B" d="M2765 1343l-1348 -1343h-86l1344 1343l-1344 1348h86z" />
<glyph unicode="C" d="M2675 2691h90l-1348 -1348l1348 -1343h-90l-1344 1343z" />
<glyph unicode="D" d="M3170 1225h-843v-848h-553v848h-848v553h848v843h553v-843h843v-553z" />
<glyph unicode="E" d="M3170 1225h-2244v553h2244v-553z" />
<glyph unicode="F" d="M2867 2159l-815 -881l-811 881h299l516 -557l512 557h299z" />
<glyph unicode="G" d="M3293 803l-1233 1339l-1237 -1343l-192 180l1421 1540l1413 -1528z" />
<glyph unicode="H" d="M1311 1319l-94 -500q147 8 274 22.5t262 30.5q-16 74 -59 148t-102.5 135.5t-131 104.5t-149.5 59zM2408 2441q184 -20 321.5 -155.5t154.5 -331.5l-1012 -987q-61 184 -182 294.5t-306 168.5z" />
<glyph unicode="I" horiz-adv-x="4505" d="M2122 1618l721 -721l-82 -82l-721 721l-721 -721l-82 82l721 721l-721 721l82 82l721 -721l721 721l82 -82z" />
<glyph unicode="J" horiz-adv-x="4096" d="M1348 2511q-8 25 -9 37q0 33 25 49t49 16h2118q33 0 55.5 -20.5t22.5 -52.5v-1328q0 -33 -22.5 -55t-55.5 -22h-1622q-33 0 -49.5 22.5t-28.5 54.5zM3531 979q78 0 78 -78v-65q0 -33 -22.5 -55.5t-55.5 -22.5h-807h-543h-331.5h-170t-65.5 2l-12 2q-49 0 -70 45 l-512 1585h-451q-33 0 -53 20.5t-20 53.5v74q0 33 20.5 53t52.5 20h557q45 0 66 -45l516 -1589h1823zM1896 451q0 -78 -55 -131.5t-133 -53.5t-131 53.5t-53 131.5t53 131t131 53t133 -53t55 -131zM3588 451q0 -78 -53 -131.5t-131 -53.5t-131.5 53.5t-53.5 131.5t53.5 131 t131.5 53t131 -53t53 -131z" />
<glyph unicode="K" horiz-adv-x="4096" d="M3531 979q78 0 78 -78v-65q0 -33 -22.5 -55.5t-55.5 -22.5h-807h-543h-331.5h-170t-65.5 2l-12 2q-49 0 -70 45l-512 1585h-451q-33 0 -53 20.5t-20 53.5v74q0 33 20.5 53t52.5 20h557q45 0 66 -45l516 -1589h1823zM1896 451q0 -78 -55 -131.5t-133 -53.5t-131 53.5 t-53 131.5t53 131t131 53t133 -53t55 -131zM3588 451q0 -78 -53 -131.5t-131 -53.5t-131.5 53.5t-53.5 131.5t53.5 131t131.5 53t131 -53t53 -131zM3531 2613q33 0 55.5 -20.5t22.5 -52.5v-1328q0 -33 -22.5 -55t-55.5 -22h-1622q-33 0 -49.5 22.5t-28.5 54.5l-483 1299 q-8 25 -9 37q0 33 25 49t49 16h2118zM3498 1507q0 29 -29 29h-1556q-29 0 -29 -29l62 -168q12 -29 28 -28h1495q29 0 29 28v168zM3510 1962q0 25 -28 25h-1737q-29 0 -29 -25l62 -172q12 -25 28 -25h1676q29 0 28 25v172zM3514 2413q0 25 -28 24h-1925q-29 0 -29 -24 l61 -172q8 -8 12.5 -16.5t16.5 -8.5h1864q29 0 28 25v172z" />
<glyph unicode="L" horiz-adv-x="4096" d="M2249 2220l315 -315q-274 -274 -421.5 -422t-217.5 -217.5t-82 -81.5l-12 -13q-8 20 -37 61.5t-98 106.5q-70 70 -117 98.5t-68 37.5q0 8 13 16zM2437 2408q29 29 66 29q33 0 69 -29l181 -180q29 -37 28 -69q0 -37 -28 -66l-107 -106l-315 315zM1610 1253 q45 -41 67.5 -71.5t38.5 -51.5q16 -25 25 -40q-45 -25 -90 -46q-41 -20 -90.5 -40.5t-94.5 -40.5q-37 61 -77.5 96t-69.5 51q16 49 34.5 98t35.5 90q16 45 36 91q20 -8 50 -25q49 -33 135 -111zM1253 1024q25 -16 60 -45t67 -82q-41 -16 -75.5 -26.5t-55.5 -10.5 q-12 0 -16 4q-8 8 -8 29q0 20 8 55t20 76zM2417 819h-992l168 78h959z" />
<glyph unicode="M" horiz-adv-x="4096" d="M1937 438q0 -90 -63.5 -153.5t-153.5 -63.5q-94 0 -155.5 63.5t-61.5 153.5t61.5 153.5t155.5 63.5q90 0 153.5 -63.5t63.5 -153.5zM2933 438q0 -90 -63.5 -153.5t-153.5 -63.5t-153.5 63.5t-63.5 153.5t63.5 153.5t153.5 63.5t153.5 -63.5t63.5 -153.5zM3293 2339 q57 0 98 -41t41 -98v-29q0 -12 -8 -45l-176 -754q-8 -49 -47 -84t-92 -35h-1507l49 -188h1392q57 0 98.5 -43t41.5 -100v-25q0 -57 -41 -98t-99 -41h-1532q-57 0 -92 39t-51 100l-389 1540h-176q-57 0 -98 41t-41 107q0 57 40.5 98t98.5 41h237q12 0 43 -2t64 -10.5 t61.5 -27t36.5 -50.5l78 -295h1970zM3088 2032h-1687l119 -471h1458z" />
<glyph unicode="N" horiz-adv-x="4096" d="M3510 2306q0 -45 -30.5 -75.5t-75.5 -30.5h-2720q-45 0 -75.5 30.5t-30.5 75.5v274q0 45 30.5 76t75.5 31h2720q45 0 75.5 -30.5t30.5 -76.5v-274zM3510 1343q0 -45 -30.5 -73.5t-75.5 -28.5h-2720q-45 0 -75.5 28.5t-30.5 73.5v279q0 45 30.5 73.5t75.5 28.5h2720 q45 0 75.5 -28.5t30.5 -73.5v-279zM3510 385q0 -45 -30.5 -75.5t-75.5 -30.5h-2720q-45 0 -75.5 30.5t-30.5 75.5v274q0 45 30.5 74t75.5 29h2720q45 0 75.5 -28.5t30.5 -74.5v-274z" />
<glyph unicode="O" horiz-adv-x="4096" d="M2449 -1475q49 0 84 -34.5t35 -79.5v-918q0 -45 -34.5 -79.5t-84.5 -34.5h-847q-49 0 -84 34.5t-35 79.5v918q0 45 34.5 79.5t84.5 34.5h847zM2421 -1618h-791v-860h791v860zM2277 -2195h-503v73h503v-73zM2277 -2339h-503v74h503v-74zM2044 -1905q37 0 63.5 -26.5 t26.5 -67.5v-49h-319q-41 0 -46 4v45q0 41 27 67.5t64 26.5h57q-33 12 -53.5 41t-20.5 62q0 45 33 77.5t78 32.5t75.5 -32.5t30.5 -77.5q0 -74 -73 -103h57zM2941 2683q98 0 170 -69.5t72 -172.5v-1921q0 -102 -72 -171.5t-170 -69.5h-1790q-102 0 -172 69.5t-70 171.5v1921 q0 102 70 172t172 70h1790zM2875 2380h-1658v-1802h1658v1802zM2576 1176h-1065v151h1065v-151zM2576 877h-1065v147h1065v-147zM2085 1786q78 0 133 -57.5t55 -139.5v-106h-442.5t-227 2t-83.5 4l-13 2v98q0 82 55.5 139.5t133.5 57.5h119q-66 25 -109 84t-43 133 q0 94 67.5 159.5t161.5 65.5t162 -65.5t68 -159.5q0 -74 -43 -133.5t-113 -83.5h119z" />
<glyph unicode="P" d="M3228 2994q123 0 211 -86t88 -209v-1949q0 -123 -88 -209t-211 -86h-1164v-254q0 -86 -59 -145.5t-141 -59.5h-787q-82 0 -141 59.5t-59 145.5v254h-17q-123 0 -209 86t-86 209v1949q0 123 86 209t209 86h193q123 0 211 -86t88 -209v-1949q0 -123 -88 -209t-211 -86h-74 v-254q0 -41 28.5 -70t69.5 -29h787q41 0 67.5 29t26.5 70v254h-127q-123 0 -209 86t-86 209v1949q0 123 86 209t209 86h1397zM2261 938h-238v-139h238v139zM2261 1266h-238v-140h238v140zM2261 1589h-238v-139h238v139zM2261 1913h-238v-139h238v139zM2662 938h-241v-139 h241v139zM2662 1266h-241v-140h241v140zM2662 1589h-241v-139h241v139zM2662 1913h-241v-139h241v139zM3064 938h-242v-139h242v139zM3064 1266h-242v-140h242v140zM3064 1589h-242v-139h242v139zM3064 1913h-242v-139h242v139zM2888 2245q123 0 211 63.5t88 149.5 q0 90 -88 151.5t-211 61.5h-717q-123 0 -209 -61.5t-86 -151.5q0 -86 86 -149.5t209 -63.5h717z" />
<glyph unicode="Q" horiz-adv-x="4100" d="M2494 2998q90 0 172 -34.5t143.5 -96t96.5 -143.5t35 -172v-2118q0 -94 -35 -174t-96.5 -141.5t-143 -96t-172.5 -34.5h-888q-94 0 -174 34.5t-141.5 96t-96.5 141.5t-35 174v2118q0 90 35 172t96.5 143.5t141 96t174.5 34.5h888zM1827 2662h446v111h-446v-111zM1737 479 h-226v-188h226v188zM1737 815h-226v-192h226v192zM1737 1151h-226v-193h226v193zM2183 479h-225v-188h225v188zM2183 815h-225v-192h225v192zM2183 1151h-225v-193h225v193zM2626 479h-222v-188h222v188zM2626 815h-222v-192h222v192zM2626 1151h-222v-193h222v193z M2720 2441h-1340v-1003h1340v1003z" />
<glyph unicode="R" d="M1516 1753q-131 0 -244 49t-197 135t-133 199t-49 244q0 127 49 241.5t133 200.5t196.5 135t244.5 49q127 0 241.5 -49t200.5 -135t135 -200.5t49 -241.5q0 -131 -49 -244t-135 -199t-200.5 -135t-241.5 -49zM2949 1057q410 0 641.5 -266.5t231.5 -794.5h-1749 q0 528 233 794.5t643 266.5zM2494 1184q-307 -131 -470.5 -434.5t-163.5 -753.5h-1581q0 389 90 682t256 487.5t405.5 292.5t538.5 98q593 1 925 -372zM2912 1188q-86 0 -163.5 32.5t-135 90t-90.5 135.5t-33 164q0 90 33 167.5t90.5 135t135 90.5t163.5 33t164 -33 t135.5 -90.5t90 -135t32.5 -167.5q0 -86 -32.5 -164t-90 -135.5t-135.5 -90t-164 -32.5z" />
<glyph unicode="S" horiz-adv-x="4505" d="M2966 2707q111 0 188.5 -77.5t77.5 -184.5v-2191q0 -106 -78 -182t-188 -76h-1831q-111 0 -191 75.5t-80 182.5v2191q0 106 80 184t191 78h229v-135h-94q-82 0 -139.5 -57t-57.5 -139v-1286q0 -78 55.5 -135.5t141.5 -57.5h327q45 0 76 -28.5t39 -73.5v-365 q4 -82 63.5 -133t141.5 -51h905q82 0 139.5 59.5t57.5 140.5v1930q0 82 -57.5 139t-139.5 57h-139v135h283zM1528 422q12 -20 40.5 -41t63.5 -37t63.5 -26.5t37.5 -10.5q0 8 -16.5 26.5t-35 49.5t-35 72t-16.5 98v123q0 66 -45 108.5t-106 42.5h-111q-57 0 -102 14.5t-76 31 t-51.5 28.5t-28.5 12q0 -8 14.5 -30.5t35 -49t45 -55t44.5 -53.5q4 -8 8.5 -10t8.5 -6zM2843 1212h-1557v148h1557v-148zM2843 1569h-1557v143h1557v-143zM2843 1921h-1557v143h1557v-143zM2474 2847q53 0 90 -37t37 -90v-266h-1151v266q0 53 37 90t94 37h217q8 66 84 110.5 t146 44.5q33 0 71.5 -12t71.5 -32.5t57.5 -49.5t28.5 -61h217zM2023 2728q41 0 68 26.5t27 67.5t-27 67.5t-68 26.5t-67.5 -26.5t-26.5 -67.5t26.5 -67.5t67.5 -26.5z" />
<glyph unicode="T" d="M2044 1855q106 250 290.5 371t381.5 121q127 0 245.5 -51t211 -151.5t149.5 -250t57 -346.5q0 -188 -80 -319t-196.5 -229.5t-253.5 -176.5t-252 -155q-106 -74 -200.5 -158t-168.5 -166t-121 -151.5t-59 -110.5q-12 41 -59 110.5t-121 147.5t-170 162t-211 157 q-119 74 -254 152t-254 178.5t-196.5 233.5t-77.5 325q0 197 57 348.5t151.5 254t213 155.5t249.5 53q193 0 373 -123t295 -381z" />
<glyph unicode="U" d="M2048 1995q131 299 313.5 426t362.5 127q123 0 237.5 -51.5t202.5 -141.5t141.5 -206.5t53.5 -247.5q0 -102 -35 -209t-117 -213q-311 -385 -530 -653.5t-359 -440.5q-164 -201 -270 -328q-98 127 -262 328q-139 172 -358.5 440.5t-538.5 657.5q-82 102 -119 208.5 t-37 209.5q0 131 53.5 247.5t141.5 206.5t202.5 141.5t241.5 51.5q180 0 362.5 -127t313.5 -426z" />
<glyph unicode="V" horiz-adv-x="4100" d="M2376 3011h311l-971 -1508l971 -1503h-311l-971 1503z" />
<glyph unicode="W" horiz-adv-x="4100" d="M2687 1503l-971 -1503h-311l971 1503l-971 1508h311z" />
<glyph unicode="X" horiz-adv-x="1724" d="M881 2327q25 57 49 106q176 336 389 356q119 12 184 -82q45 -66 45 -167q4 -152 -69 -373q-66 -209 -164 -369q-49 -82 -103 -135q-74 -74 -151 -82q-57 -4 -148 29q-66 29 -147 78q-172 98 -324 237q-176 164 -241 303q-45 98 -33 185q12 102 106 167q139 94 291 46 q115 -37 213 -156q58 -61 103 -143z" />
<glyph unicode="Y" horiz-adv-x="4100" d="M1901 12q-61 20 -13 82q16 8 37 22.5t41 22.5q25 37 43.5 76t46.5 72q-12 57 -47 112.5t-55 108.5q-12 53 -28.5 112.5t-53.5 100.5q-12 29 -12 74q25 90 45 174t77 161q0 41 21 46q0 20 12.5 38.5t12.5 34.5q-57 29 -80 72t-43 100q-37 25 -45 41q-33 4 -74 37 q-45 49 -57 62h-66h-209q-41 16 -98 81q-20 0 -41 21q-57 -16 -86 16q0 37 22.5 43.5t38.5 34.5q25 0 47.5 2t42.5 6q-20 4 -51 4t-51 13q0 4 -2 6t-2 10q29 41 94.5 20.5t93.5 -40.5q4 -12 14.5 -24.5t22.5 -24.5q41 -4 82 8t82 20q-8 66 -25 82q-111 20 -159 33 q-66 -12 -131.5 -2t-130.5 14q-25 16 -41.5 22.5t-77.5 43.5q-12 12 -49 41q-4 -4 -54 -70q-66 -111 -125 -215t-120 -207q-4 -12 -41 -74q-16 -41 -43 -118.5t-84 -73.5q8 49 32.5 96t44.5 92q4 25 9 66q0 123 -2 309t141 256v30.5v31.5q-12 25 -2 43t6 43q20 20 22.5 55 t30.5 43h58q20 41 28 45q0 74 82 160q25 20 53.5 38.5t53.5 38.5q70 33 141.5 57.5t124.5 78.5q12 12 22.5 30.5t26.5 38.5q33 53 33 62q0 57 39 47t35 -47q-45 -45 -82 -119q-41 -25 -66 -82q-33 -29 -51.5 -65.5t-30.5 -69.5q-98 -152 -176 -320q-25 -16 -20 -32 q74 -20 145.5 -22.5t140.5 -31.5q20 -12 33 -28h122.5h127.5q4 8 4 12q-8 16 -33 0q-90 -4 -110 119q-4 8 -17 45q-33 37 -8 49t53 37q-8 74 -8 88v27q29 41 8 90q0 119 152 118q4 -4 14 -6t19 -2q12 4 42.5 16.5t47.5 24.5h22.5h22.5q74 -29 115 -37q8 -20 20 -41 q25 8 92.5 18.5t54.5 -50.5q-20 -4 -45 -5q8 -16 21 -24q0 -20 -10.5 -36.5t-1.5 -37.5q20 -8 57 -24q29 4 41 12q8 -20 -16.5 -47t-16.5 -43q4 -4 12.5 -6t12.5 -15q0 -8 4 -8t10 4t10 12q20 53 33 70q8 33 29 94q41 53 41 54q41 41 92 77.5t96 77.5q0 8 29 25q29 53 41 61 q-8 37 24 74q45 0 45 -39t25 -59q8 -12 8 -33q12 0 20.5 37t45.5 24q-4 -66 -41 -123q57 -20 16 -61q66 0 152 78q16 0 20 -4q33 41 70 82q4 16 12 28.5t16 32.5h14.5h18.5q-8 8 12 -20q0 -33 13 -37q-25 -90 -53 -140h4h4q29 12 94 58q12 0 16 -17q-16 0 25 13 q-4 -20 -41 -74q-25 -4 -49 -45q-16 4 45 -4q-4 -37 -103 -82v0v0q16 -12 41 -4t37 -8q-25 -25 -41 -54q8 -16 53.5 -5.5t65.5 14.5l21 -9v-4v-4q-53 -74 -115 -110q-41 0 -62 -13v-2v-2q45 -4 54 -12q-12 -45 -65.5 -59.5t-94.5 -26.5q0 -8 4 -16.5t4 -12.5 q-33 -20 -57.5 -49t-65.5 -41q-16 0 -49 10.5t-41 -2.5q20 -29 103 -41q20 -33 4 -49q-16 -4 -25 -12q41 -16 49 -29q-8 -53 -82 -65q0 -8 -2 -22.5t-2 -26.5h-45q-8 0 -10 2t-2 6q-16 -8 -17 -25q12 -12 -4 -33q-29 -12 -55.5 4.5t-46.5 24.5q-4 -57 -41 -61q-8 8 -20 8 q-4 -41 -9 -49q-49 0 -94 24.5t-82 -16.5q20 -61 94 -86q82 -16 168 -49t123 -111q8 -53 17 -82q45 -41 61 -82q45 -16 88 -38.5t92 -34.5q4 0 33 28q12 8 26.5 18.5t30.5 22.5q57 4 119 4h123q70 102 156 21q12 -37 28 -62q41 -57 113 -139t27 -160q-16 -8 -41 0l-2 -2 l-2 -2q20 -25 -17 -29t-45 25q-12 49 -73.5 78t-98.5 61q-37 -12 -71.5 -34.5t-67.5 -38.5q-90 -45 -156 -62q-152 -74 -143 -73q-78 8 -111 36q-164 25 -332 123q-53 0 -61 -45l-18.5 -18.5t-67.5 -83.5q-82 -66 -139 -94q-49 -53 -10.5 -112.5t59.5 -105.5v-67.5 t-12 -67.5v-12v-12q12 -41 8 -88t20 -84q37 -12 41 -57.5t-20 -69.5q-4 -4 -10.5 -6t-10.5 -2q-37 4 -57 8q-25 -16 -53.5 -30.5t-53.5 -27.5q-57 -70 -77 -82q-57 -8 -131 -8zM725 1495q16 25 28.5 49.5t32.5 44.5q29 49 53.5 94.5t53.5 94.5q29 61 65.5 118.5t53.5 126.5 q-16 8 -21 9q-25 0 -45 -4.5t-57 -4.5q0 -12 -4 -32q-12 0 -20.5 -4.5t-16.5 -4.5q-20 -20 -53 -69q-41 -74 -50 -193q-4 -12 -4 -61q-12 -111 -16 -164zM2118 2085h14h14q25 8 51.5 34.5t51.5 47.5q4 8 -13 90q-33 0 -61 -4q4 -4 37 -25q12 -20 12 -41q-12 0 -45 8l-4 -4 h-25q-16 -16 -16 -24q4 0 10 2t15 2l12 -25q-33 -16 -63.5 -18t-59.5 -2q21 -12 70 -41zM1094 2167l6 2t10 2q61 111 127 221.5t123 228.5q-4 0 -29 -16q-70 -45 -131 -78t-102 -98q-41 -29 -54 -131q20 -37 9 -119q21 -4 41 -12zM1667 2552v0h8v2v2h-10h-2zM1647 2576v0h8 q0 8 -4 12.5t-4 8.5v-21zM1659 2613q20 12 29 13h26.5h30.5q-57 32 -86 -13z" />
<glyph unicode="Z" horiz-adv-x="4096" />
<glyph unicode="[" d="M1864 1159v-1159h-754q-37 0 -63.5 24.5t-26.5 61.5v1073h844zM3080 1159v-1073q0 -37 -24.5 -61.5t-61.5 -24.5h-758v1159h844zM860 1892q0 37 26.5 61.5t59.5 24.5h918v-680h-918q-33 0 -59.5 25t-26.5 61v508zM3154 1978q37 0 61.5 -24.5t24.5 -61.5v-508 q0 -37 -24.5 -61.5t-61.5 -24.5h-918v680h918zM2933 2793q33 -53 33 -114q0 -94 -66 -189q-45 -70 -116.5 -137t-162.5 -121q-106 -61 -212.5 -77.5t-167.5 -16.5q-41 0 -94.5 4t-98.5 25q-45 -20 -98.5 -24.5t-94.5 -4.5q-61 0 -165.5 16.5t-210.5 77.5q-90 53 -162 121 t-117 137q-66 94 -65 193q0 66 28 110q45 78 143.5 143.5t209.5 65.5q135 0 245 -110q86 -86 160 -199t127 -215q53 102 129 215t162 199q102 111 246 110q111 0 207 -65.5t141 -143.5zM1855 2310q25 0 43.5 2t34.5 2q-45 98 -124.5 229.5t-174.5 225.5q-53 57 -118 57 q-66 0 -123.5 -43t-77.5 -80q-4 -4 -4 -20q0 -45 37 -98q74 -119 217 -201q82 -45 163.5 -59.5t126.5 -14.5zM2753 2585q37 53 36 98q0 16 -4 20q-25 37 -80 80t-120 43q-66 0 -119 -57q-94 -94 -178 -225t-125 -230l78 -4q49 0 131 14.5t159 59.5q70 41 129.5 92.5 t92.5 108.5z" />
<glyph unicode="\" horiz-adv-x="4100" d="M3609 1524q41 -12 41 -49l-5 -17q0 -4 -16 -45t-51 -92t-92.5 -102.5t-143.5 -79.5q-8 -197 -102 -369t-254 -303v-389q0 -33 -22.5 -55.5t-55.5 -22.5h-270q-33 0 -55.5 22.5t-22.5 55.5v160q-111 -33 -229.5 -53.5t-249.5 -20.5q-106 0 -209 14.5t-197 38.5v-139 q0 -78 -78 -78h-266q-33 0 -55.5 22.5t-22.5 55.5v332q-45 33 -88 67.5t-80 75.5q131 25 217.5 68t139.5 86t75.5 75.5t22.5 36.5q8 16 8 29q0 29 -28 45q-16 8 -29 8q-29 0 -49 -29q0 -4 -22.5 -32.5t-72 -65.5t-135.5 -73.5t-213 -49.5q-29 41 -57 86h-422 q-33 0 -55.5 22.5t-22.5 55.5v479q0 33 22.5 55.5t55.5 22.5h324q45 160 147.5 299t249.5 246l-45 401l291 -262q279 115 594 115q246 0 465 -71.5t389 -194.5t276.5 -289t126.5 -359q57 25 94 64t62 76q29 45 45 90q12 41 53 41zM1327 1380q61 0 104.5 43t43.5 105 q0 61 -43 104t-105 43q-61 0 -104 -43t-43 -104t43 -104.5t104 -43.5zM2503 2318q-205 57 -422 58q-205 0 -389 -49q-53 106 -54 213q0 94 37 178t100.5 147.5t147.5 100t178 36.5t178 -36.5t145.5 -100t98.5 -147.5t37 -178q0 -120 -57 -222z" />
<glyph unicode="]" horiz-adv-x="4100" d="M2265 418q29 0 29 -25q0 -29 -29 -28q-25 0 -24 28q-1 25 24 25zM1741 561q-25 -82 -25 -164l-1331 443q-29 8 -43 28.5t-14 44.5q0 16 4 25q8 29 30.5 43t47.5 14q16 0 24 -4zM3789 2642q0 -78 -66 -94l-692 -119l-508 -1552q-78 41 -151 53l536 1642l787 135h16 q66 1 78 -65zM2265 786q168 0 282.5 -114.5t114.5 -278.5q0 -168 -114.5 -282.5t-282.5 -114.5q-82 0 -153.5 30.5t-127 84t-86 127t-30.5 155.5t30.5 153.5t86 125t127 84t153.5 30.5zM2265 246q61 0 104.5 43t43.5 104q0 57 -43 100.5t-105 43.5q-61 0 -104 -43t-43 -101 q0 -61 43 -104t104 -43zM2130 926q-156 -41 -270 -164l-1528 512l577 1724l721 -237l-164 -496l312 -106l168 495l688 -233zM827 1950q-12 -8 -12 -21q0 -12 12 -16l82 -25l-94 -286q0 -8 12.5 -20.5t24.5 -16.5q4 0 6 -2t10 -2q33 0 37 16l94 278l86 -28q12 0 13 8 q4 4 4 20l-82 164q-8 12 -29 13zM1335 1294q0 20 -28 37l-574 189q-33 0 -37 -25l-4 -12q0 -29 29 -37l561 -189l12 -4q29 0 37 29zM1483 1704q4 4 4 25l-82 163q-12 12 -16 13q-8 0 -13 -4l-164 -82q-12 -8 -12 -21q0 -12 12 -12l82 -29l-94 -282q0 -12 12.5 -22.5 t24.5 -14.5q4 -4 20 -4q25 0 33 12l94 283l29 -13q8 -4 37 -12t33 0z" />
<glyph unicode="_" horiz-adv-x="4100" d="M2732 2417h-2494v168q0 45 30.5 75.5t75.5 30.5h2282q45 0 75.5 -26.5t30.5 -71.5v-176zM3269 1237q106 0 184 -78t78 -184t-78 -184t-184 -78q-61 0 -103 24q45 45 69.5 106.5t24.5 131.5t-24.5 131t-69.5 106q42 25 103 25zM3019 1212q-45 -45 -69.5 -106.5 t-24.5 -130.5q0 -70 24.5 -131.5t69.5 -106.5q-49 -25 -103 -24q-106 0 -184 77.5t-78 184.5q0 106 78 184t184 78q54 0 103 -25zM3863 111q0 -45 -31 -76t-76 -35h-2281q-45 0 -76 30.5t-35 75.5v1348q0 45 30.5 76t75.5 39h2282q45 0 75.5 -31t30.5 -76v-512zM1638 496 h758v86h-758v-86zM3564 348h-1926v-82h1926v82zM3277 610q156 0 262 106.5t106 258.5t-106.5 258t-261.5 106q-98 0 -185 -53q-86 53 -188 53q-152 0 -258 -106.5t-106 -257.5q0 -152 106.5 -258.5t257.5 -106.5q106 0 188 49q79 -49 185 -49zM1327 1708q-45 0 -80 -33 t-35 -86v-463h-864q-45 0 -75.5 33t-34.5 78v844h2494v-373h-1405z" />
<glyph unicode="`" horiz-adv-x="4100" d="M3150 1888q106 0 137 -43t31 -149v-1483q0 -106 -39 -161.5t-146 -55.5h-2166q-98 0 -133 39t-35 133v1544q0 106 39 141t145 35h258v299q0 168 63.5 317.5t174 260t260 176t321.5 65.5q168 0 317.5 -65.5t260 -176t176 -260t65.5 -317.5v-299h271zM2265 1155 q0 82 -59.5 141.5t-141.5 59.5t-141 -59.5t-59 -141.5v-422q0 -82 59 -141.5t141 -59.5t141.5 59.5t59.5 141.5v422zM2564 2187q0 102 -39 194.5t-108.5 162t-161.5 108.5t-195 39q-106 0 -196 -39t-160 -108.5t-109 -161.5t-39 -195v-299h1008v299z" />
<glyph unicode="a" horiz-adv-x="4104" d="M3240 3002q131 0 221 -90t90 -221v-881q0 -57 -22.5 -116.5t-67.5 -104.5l-1528 -1519q-74 -74 -176 -74t-176 74l-958 962q-37 33 -55.5 80t-18.5 92q0 102 74 176l1519 1528q94 94 221 94h877zM1221 1122l987 987l-148 152l-987 -987zM2531 1802l-147 148l-987 -987 l147 -148zM2855 1491l-148 151l-987 -987l148 -151zM2990 2167q111 0 190.5 80t79.5 190q0 111 -79.5 190.5t-190.5 79.5t-190.5 -79.5t-79.5 -190.5t79.5 -190.5t190.5 -79.5z" />
<glyph unicode="b" horiz-adv-x="4100" d="M2531 737q-156 -188 -352.5 -298.5t-368.5 -172.5q-201 -74 -409 -98q176 147 241.5 286.5t73.5 258.5q-262 41 -485 137t-387 235.5t-256 309.5t-92 362q0 221 122.5 418t335.5 342t498 229t608 84q324 0 610.5 -84t499.5 -229t336 -342t123 -418q0 -180 -82 -342 t-229.5 -297t-348 -233.5t-438.5 -147.5z" />
<glyph unicode="c" d="M3977 1647q16 -25 37 -80.5t21 -132.5q0 -82 -43 -180.5t-166 -196.5q-106 -86 -198.5 -119t-174.5 -33q-66 0 -121 16.5t-96 41t-67.5 49t-39.5 37.5q-20 25 -46.5 84t-26.5 129q0 45 -6.5 86t-51.5 41q-20 0 -44.5 -8.5t-57.5 -28.5q-86 -57 -201 -141.5t-225 -133.5 q-90 -20 -194.5 -38.5l-209 -37t-201 -35t-165.5 -28.5l-1626 -287l-4 54q0 143 69.5 268t196.5 223q82 66 168 104.5t155 63.5q82 25 164 41l1274 225q78 102 186.5 168t202.5 139q74 57 74 95q0 33 -35 49t-71 28q-70 25 -115 68t-58 76q-16 20 -34.5 77.5t-18.5 131.5 q0 98 59.5 217t235.5 229q82 53 156 73.5t135 20.5q78 0 139.5 -26.5t104.5 -61.5t65.5 -65.5t30.5 -38.5q29 -53 47 -110.5t18 -123.5q0 -74 -34.5 -155.5t-120.5 -171.5q-16 -12 -28.5 -26.5t-24.5 -27.5q-86 -82 -152 -149.5t-115 -131t-83.5 -129t-51.5 -143.5 q-8 -29 -16 -69q20 -4 34.5 -6t34.5 -2q20 -4 37 -4h37q131 0 256 51t305 137q20 8 43 18.5t47 22.5q119 53 222 53q74 0 135 -22.5t108 -53t78 -63t47 -57.5zM2290 1241q49 0 86 35t37 88t-37 88t-86 35q-53 0 -90 -35t-37 -88t37 -88t90 -35zM2474 2355q33 -41 84 -61.5 t113 -20.5q115 0 204 66q66 45 105 114.5t39 139.5q0 74 -49 131q-70 82 -177 82q-102 0 -213 -78q-70 -53 -106.5 -118.5t-36.5 -135.5t37 -119zM3682 1167q70 49 115 123t45 148q0 61 -29 106q-74 115 -204 115q-49 0 -102.5 -16.5t-102.5 -49.5q-78 -53 -117 -131 t-39 -151q0 -66 33 -119q61 -90 192 -90q49 0 104.5 16t104.5 49zM872 184h422l-65 -176h-418zM2900 184h422l-66 -176h-422zM2560 8l-12 -8h-1123l361 754q37 4 114.5 18t174 32.5t207 39t217.5 41.5l-291 -701h418zM180 184h422l-65 -176h-422z" />
<glyph unicode="d" horiz-adv-x="4104" d="M2081 299q33 -4 63.5 -20.5t30.5 -57.5v-143q-4 -33 -41 -55.5t-82 -22.5h-209q-33 4 -67.5 22.5t-34.5 59.5v139q4 33 39 55.5t84 26.5zM2060 2994q201 0 381 -73.5t329.5 -202.5t258.5 -309.5t166 -393.5q156 -66 252 -207t96 -321q0 -205 -119 -358.5t-303 -198.5 l-19 -45q-18 -45 -54.5 -115t-96 -154t-141.5 -161q-102 -94 -245.5 -190.5t-291.5 -125.5q-53 0 -61 58v16q0 49 45 66q82 25 164 69q70 33 153.5 88.5t157.5 124.5q115 111 178.5 219.5t83.5 161.5v1114q-57 160 -151.5 295t-215 231.5t-264 149.5t-303.5 53 q-168 0 -317.5 -59.5t-274.5 -163.5t-219 -249.5t-143 -317.5v-1082q-115 0 -215 47.5t-174 123t-117 180t-43 223.5q0 188 102.5 333.5t266.5 202.5q57 213 165.5 391.5t258 307.5t329.5 200.5t381 71.5z" />
<glyph unicode="e" d="M2626 2097q-102 0 -180.5 -10t-139.5 -51q-61 -37 -112.5 -100.5t-94.5 -137.5t-80 -153.5t-65 -149.5q-70 -160 -139.5 -311.5t-151.5 -282.5q-61 -98 -137 -184t-176.5 -151.5t-229.5 -104.5t-297 -39h-221q-20 0 -55 -4t-68 -4q-61 0 -82 20q-16 12 -20 41t-4 62v286 q8 8 8 21q0 25 8 41q8 12 39 16t68 4h147q49 -4 96 -4h92h82q57 8 98.5 22.5t69.5 34.5q111 66 186.5 201t133.5 266l102 222q61 135 127 266t145.5 247.5t182 209t237.5 145.5q82 33 172.5 49t204.5 16h443q8 25 8 62l-12 233q0 45 6 76t26 39q25 8 29 8q25 0 45.5 -14 t40.5 -35l508 -508q25 -25 47.5 -51.5t22.5 -46.5q0 -33 -25 -57.5t-45 -44.5q-131 -131 -252 -248t-248 -248q-25 -20 -47 -43t-51 -23q-33 8 -41 39t-8 72v307h-393zM1626 2159q-74 -119 -135 -248t-119 -264q-41 74 -82 151.5t-96 143t-127 108.5t-174 51h-389 q-12 -4 -33 -4q-57 0 -74 17q-25 20 -24 98v250q0 49 10 81.5t51 36.5q16 4 32.5 4.5t33.5 0.5h135q156 -8 293 -12.5t256 -49.5q156 -57 258 -155t184 -209zM2023 1356q53 -94 98.5 -186.5t123.5 -161.5q41 -37 102 -68t131 -39h541v320q0 37 6 65.5t39 36.5 q33 0 59.5 -22.5t46.5 -43.5q238 -246 496 -495l45 -45t25 -53q0 -25 -20.5 -49.5t-41.5 -45.5q-135 -131 -256 -251.5t-248 -251.5q-29 -29 -51 -47.5t-47 -18.5q-37 0 -45 33t-8 78v303q-41 4 -80 4h-80h-258q-33 0 -67.5 2t-67.5 6q-254 25 -430 135q-82 53 -141.5 127 t-125.5 152q70 119 133.5 248t120.5 268z" />
<glyph unicode="f" horiz-adv-x="4100" d="M1114 0h-262v2998h262v-2998zM3244 2150l-1933 -1036v1888z" />
<glyph unicode="g" horiz-adv-x="4096" d="M3420 1618q0 -94 -24.5 -161.5t-61.5 -133.5q12 -61 12 -115q0 -94 -24 -168q-8 -29 -22.5 -53t-18.5 -45v-147q-8 -78 -35 -135.5t-68 -110.5q0 -180 -75.5 -299t-202.5 -180q-82 -37 -182.5 -53.5t-206.5 -16.5q-176 0 -350 33t-297 69q-119 37 -222 74 q-57 20 -114.5 38.5t-114.5 27.5l-70 4l-331 -13q-57 0 -102.5 4.5t-82.5 16.5q-45 16 -88 57t-59 90q-12 37 -12 78l4 53v623v112.5t-4 112.5v172q0 94 16 144q20 45 65.5 88t90.5 55q33 8 57 8h21q16 0 24 4l356 -16h43t43 8q33 8 68 51t64 76l229 283q33 37 65.5 71.5 t49.5 71.5q45 90 55 200.5t55 205.5q29 57 84 116.5t137 67.5q20 4 62 4q119 0 211 -45t149 -115q61 -74 90 -178t29 -215q0 -98 -20.5 -194.5t-61.5 -165.5h270q70 0 132 -13q147 -29 257.5 -151.5t110.5 -294.5zM1016 442q61 0 104 43t43 105q0 57 -43 100t-104 43 t-104.5 -43t-43.5 -100q0 -61 43.5 -104.5t104.5 -43.5zM3052 1384q70 12 104.5 88t34.5 146q-4 82 -59.5 143.5t-120.5 77.5q-70 12 -160 12l-373 -12h-78t-69 8q0 70 24.5 135.5t55 129t57 127t35.5 137.5l4 57q0 131 -51.5 233.5t-153.5 102.5q-45 0 -82 -16 t-55.5 -100.5t-34.5 -158.5l-4 -16q-20 -61 -39 -120.5t-43 -108.5q-20 -41 -63.5 -86t-79.5 -90q-70 -86 -129.5 -166t-137.5 -162l-12 -12q-45 -45 -102.5 -84t-139.5 -39h-20v-1135q102 -8 192 -30.5t176.5 -51t174.5 -59.5t186 -51q78 -20 188.5 -35t225.5 -15 q119 0 223 23t158 80q33 33 47 90t14 123v42.5t-4 43.5q45 29 78 94.5t33 138.5q0 66 -29 119q45 29 67.5 88.5t22.5 128.5q0 53 -14 100t-47 80z" />
<glyph unicode="h" horiz-adv-x="4096" d="M3334 1667q37 -61 61.5 -131t24.5 -164q0 -172 -110.5 -295t-257.5 -151q-25 -4 -49.5 -6t-53.5 -2h-299q41 -74 61.5 -168.5t20.5 -192.5q0 -111 -28.5 -215t-90.5 -178q-57 -70 -151.5 -117t-212.5 -47q-37 0 -58 4q-82 8 -137 67.5t-84 116.5l-110 410q-16 33 -49 70 t-66 69l-229 283q-29 33 -64 76t-68 51q-20 8 -42.5 8h-43.5l-188 -12h-156q-66 0 -114 12q-45 8 -90 51t-66 88q-12 37 -12 103v651v106.5t-4 110.5v193q0 37 2 71.5t10 63.5q16 49 59 88t88 55q33 12 78 16.5t99 4.5l339 -13l70 4q57 8 114.5 26.5t114.5 39.5 q102 37 222 74q123 37 297 69.5t350 32.5q106 0 206.5 -16.5t182.5 -53.5q127 -61 202.5 -177.5t75.5 -301.5q41 -53 68 -110.5t35 -135.5v-147q4 -20 18.5 -45t22.5 -53q25 -74 24 -168q0 -54 -12 -115zM1163 2404q0 57 -43 100.5t-104 43.5t-104.5 -43t-43.5 -101 q0 -61 43 -104t105 -43q61 0 104 43t43 104zM3191 1372q0 70 -35 145.5t-104 88.5q33 33 47 80t14 100q0 70 -22.5 129t-67.5 88q29 53 29 119q0 74 -33 139.5t-78 93.5q4 20 4 43v43q0 70 -14.5 125t-46.5 92q-53 57 -151.5 78t-217.5 21t-233.5 -14.5t-192.5 -35.5 q-98 -20 -186 -50.5t-174.5 -59.5t-176.5 -53.5t-192 -28.5v-1135h20q86 0 143.5 -43t106.5 -92q82 -82 141.5 -161.5t129.5 -165.5q37 -45 79.5 -88.5t63.5 -88.5q29 -49 47 -112.5t39 -132.5q16 -74 34.5 -158t55.5 -100t78 -17q102 0 155.5 100.5t53.5 231.5l-4 61 q-8 74 -35 137.5t-57.5 127t-55 129t-24.5 135.5q33 8 67.5 8h71.5l373 -12q102 0 168 16q66 12 121 73.5t59 143.5z" />
<glyph unicode="i" d="M1409 2748q0 57 45 96.5t115 39.5l1904 118q66 0 111 -36.5t45 -94.5v-2212q0 -111 -51 -209t-137 -171.5t-203 -116.5t-252 -43t-252 43t-205 116.5t-139 172t-51 208.5q0 111 51 209.5t139 172t205 116.5t252 43q147 0 287 -53v1196q0 49 -43 84t-101 35l-1220 -82 q-57 0 -98.5 -55.5t-41.5 -104.5v-1679q0 -111 -51 -209.5t-139 -172t-205 -116.5t-252 -43t-251.5 43t-202.5 116.5t-137.5 172t-51.5 209.5t51.5 209t137.5 171.5t202.5 116.5t251.5 43q152 0 287 -57v1724z" />
<glyph unicode="j" horiz-adv-x="4100" d="M2511 2998l-291 -1224h782l-1634 -1774l434 1307h-696z" />
<glyph unicode="k" d="M303 315h402v1700h737v-1700h221v2159h737v-2159h238v2687h737v-2687h422v-319h-3494v319z" />
<glyph unicode="l" horiz-adv-x="4096" d="M1577 1028q-94 213 -180 336t-151.5 219t-102.5 202.5t-37 295.5q0 188 73.5 356t202.5 293t299 196.5t367 71.5t369 -71.5t301 -196.5t202.5 -293t73.5 -356q0 -168 -39 -270.5t-102.5 -201t-147.5 -223t-170 -337.5q-8 -25 -10 -45.5t-2 -57.5v-98h-946v180zM1581 745 h934v-180h-934v180zM1581 467h934v-176h-934v176zM1819 172h458v-176h-458v176z" />
<glyph unicode="m" horiz-adv-x="4100" d="M635 651q-119 0 -205 86t-86 205v1765q0 119 86 205t205 86h2843q119 0 204.5 -86t85.5 -205v-1765q0 -119 -86 -205t-204 -86h-1094v-291h487v-364h-1630v364h488v291h-1094zM868 2572q-70 0 -114.5 -47t-44.5 -112v-1139q0 -70 45 -115t114 -45h2376q70 0 115 45 t45 115v1139q0 66 -45 112.5t-115 46.5h-2376z" />
<glyph unicode="n" horiz-adv-x="4096" d="M2531 1462l668 -688l213 -364l-320 -332l-385 188l-692 709l-270 -299l-103 -217l-466 -455l-332 332l434 438l258 107l291 278l-238 230l-860 184l-246 528l119 127l86 -33l156 -155l303 -119l295 127l127 299l-119 299l-152 160l-36 82l118 123l541 -246l188 -856 l230 -242l598 602l57 189l455 274l180 -180l-278 -418l-205 -70zM2888 451l151 147l-151 152l-152 -152z" />
<glyph unicode="o" horiz-adv-x="4104" d="M2052 1954q94 0 178 -37t145.5 -98.5t98.5 -145.5t37 -178t-37 -178t-98.5 -145.5t-145.5 -98.5t-178 -37t-178 37t-145.5 98.5t-98.5 145.5t-37 178t37 178t98.5 145.5t145.5 98.5t178 37zM3240 1159q-20 -70 -49 -137.5t-62 -132.5l209 -230l-446 -450l-234 213 q-115 -70 -270 -115l-16 -311h-635l-21 311q-156 45 -270 115l-234 -213l-446 450l213 230q-70 123 -115 270l-315 21v635l315 20q45 147 115 270l-213 230l446 450l234 -213q115 70 270 115l21 311h635l16 -311q156 -45 270 -115l234 213l446 -450l-209 -230 q33 -66 61.5 -133t49.5 -137l315 -20v-635zM2052 758q152 0 287 57t237.5 157.5t159.5 235.5t57 287t-57 287t-159.5 237.5t-237.5 159.5t-287 57q-156 0 -289 -57t-235.5 -159.5t-159.5 -237.5t-57 -287t57 -287t159.5 -235.5t235.5 -157.5t289 -57z" />
<glyph unicode="p" horiz-adv-x="4096" d="M676 926l-176 -926q274 12 505.5 41t485.5 57q-33 139 -110.5 276.5t-186.5 248t-244 190.5t-274 113zM2707 3002q168 -16 322 -92t272.5 -196.5t192.5 -278.5t86 -338q-221 -217 -383 -376.5t-295 -291t-254 -246t-256 -245.5t-297 -291t-383 -377q-119 336 -344 545 t-561 315z" />
<glyph unicode="q" d="M2052 -4q-311 0 -583.5 118.5t-477.5 323.5t-323.5 477.5t-118.5 583.5t118.5 583.5t323.5 477.5t477.5 323.5t583.5 118.5t583.5 -118.5t477.5 -323.5t323.5 -477.5t118.5 -583.5t-118.5 -583.5t-323.5 -477.5t-477.5 -323.5t-583.5 -118.5zM2052 2691q-246 0 -463 -94 t-378.5 -256t-256 -379t-94.5 -463t94.5 -463t256 -378.5t378.5 -256t463 -94.5t463 94.5t379 256t256 378.5t94 463t-94 463t-256 379t-379 256t-463 94zM2052 578q-193 0 -358.5 71.5t-292.5 198.5t-199 293t-72 358q0 188 72 356t199 295t293 199t358 72q188 0 356 -72 t295 -199t199 -294.5t72 -356.5q0 -193 -72 -358.5t-199 -292.5t-295 -198.5t-356 -71.5zM2052 2126q-131 0 -245.5 -49t-200.5 -133t-135.5 -199t-49.5 -246t49.5 -245.5t135.5 -200.5t200.5 -135.5t245.5 -49.5t246 49.5t198.5 135.5t133 200.5t49.5 245.5t-49.5 246 t-133 199t-198.5 133t-246 49zM2052 1139q-74 0 -139.5 28.5t-114.5 77.5t-77.5 114.5t-28.5 139.5q0 147 106.5 251.5t253.5 104.5t251.5 -104t104.5 -252q0 -147 -104.5 -253.5t-251.5 -106.5z" />
<glyph unicode="r" horiz-adv-x="4100" d="M3228 2630q254 -246 385 -535t139 -633v-32q0 -324 -121 -615t-371 -549q-49 -49 -114 -49q-61 0 -115 45q-49 49 -49 119q0 61 45 115q193 197 287 440.5t94 497.5q0 266 -102.5 516t-307.5 446q-49 49 -49 115q0 70 45 115q53 53 119 53t115 -49zM324 680v1499h782 l1208 823v-3002l-1208 680h-782zM2814 2208q168 -160 250 -363t82 -415q0 -205 -76 -402t-231 -352q-49 -49 -119 -49q-66 0 -115 49t-49 115t49 114q106 111 159.5 248t53.5 281q0 147 -57.5 286.5t-171.5 249.5q-53 53 -54 119q0 66 50 115q49 49 114 49q62 0 115 -45z " />
<glyph unicode="s" horiz-adv-x="4100" d="M2048 4q-254 115 -483.5 291t-401.5 419.5t-274.5 559t-102.5 713.5q0 106 6.5 212.5t22.5 221.5q139 25 317.5 90t352.5 147t325.5 174.5t237.5 169.5q86 -78 239.5 -170t332 -174t358.5 -147.5t319 -89.5q20 -119 26.5 -225.5t6.5 -213.5q0 -397 -108.5 -710.5 t-286.5 -555t-409.5 -415.5t-477.5 -297z" />
<glyph unicode="t" horiz-adv-x="4104" d="M3469 2998q119 0 205 -84t86 -207v-1822q0 -119 -86 -205t-205 -86h-561v-598l-803 598h-1482q-119 0 -205 86t-86 205v1822q0 123 86 207t205 84h2846zM860 2175h2380v291h-2380v-291zM860 1659h2380v291h-2380v-291zM3240 1421h-2380v-291h2380v291z" />
<glyph unicode="u" horiz-adv-x="4100" d="M2056 2994q311 0 583.5 -116.5t475.5 -319.5t319.5 -475.5t116.5 -583.5t-116.5 -583.5t-319.5 -475t-475.5 -319.5t-583.5 -117t-583.5 117t-475 319.5t-319.5 475t-117 583.5t117 583.5t319.5 475.5t475 319.5t583.5 116.5zM2916 1712h-647v643h-430v-643h-643v-430 h643v-647h430v647h647v430z" />
<glyph unicode="v" horiz-adv-x="4100" d="M3342 2855q98 0 184.5 -37t152 -102.5t102 -151.5t36.5 -184v-1762q0 -98 -36.5 -184t-102 -151.5t-151.5 -102.5t-185 -37h-2588q-98 0 -184.5 37t-152 102.5t-102 151.5t-36.5 184v1762q0 98 36.5 184t102 151.5t151.5 102.5t185 37h2588zM1831 2589q-66 0 -111 -45 t-45 -115q0 -66 45 -111t111 -45t111 45t45 111q0 70 -45 115t-111 45zM1311 2589q-66 0 -111 -45t-45 -115q0 -66 45 -111t111 -45q70 0 114.5 45t44.5 111q0 70 -44.5 115t-114.5 45zM791 2589q-66 0 -111 -45t-45 -115q0 -66 45 -111t111 -45t110.5 45t44.5 111 q0 70 -44.5 115t-110.5 45zM3592 2011h-3092v-1393q0 -106 73.5 -177.5t180.5 -71.5h2588q106 0 178 71.5t72 177.5v1393zM2478 1270q37 -20 37 -70q0 -45 -37 -70l-680 -393q-25 -8 -41 -8t-41 8q-41 29 -41 70v786q0 49 41 70q16 12 41 12q20 0 41 -12z" />
<glyph unicode="w" d="M2048 3002q311 0 583.5 -118.5t477.5 -323.5t323.5 -477.5t118.5 -583.5t-118.5 -585.5t-323.5 -477.5t-477.5 -321.5t-583.5 -118.5t-583.5 118.5t-477.5 321.5t-323.5 477.5t-118.5 585.5t118.5 583.5t323.5 477.5t477.5 323.5t583.5 118.5zM1585 2654 q-184 -74 -335.5 -200.5t-258.5 -299.5h344q45 160 112.5 283t137.5 217zM938 2060q-61 -119 -96 -254t-39 -278h442q8 307 62 532h-369zM1323 897q-33 115 -51.5 248t-22.5 289h-446q16 -295 155 -537h365zM1016 799q111 -156 262.5 -277t335.5 -190q-70 86 -137.5 200.5 t-120.5 266.5h-340zM1954 799h-398q86 -221 201 -346t197 -183v529zM1954 1434h-516q12 -315 86 -537h430v537zM1954 2060h-451q-33 -111 -49 -244t-16 -288h516v532zM1954 2740h-17q-90 -66 -206.5 -205t-198.5 -381h422v586zM2843 1434q-4 -156 -24.5 -289t-53.5 -252h373 q139 250 155 541h-450zM3293 1528q-4 143 -39 278.5t-96 253.5h-373q53 -225 62 -532h446zM3105 2154q-106 172 -258 301.5t-344 202.5q74 -94 141.5 -217t112.5 -287h348zM2146 2154h414q-61 172 -161.5 326t-252.5 260v-586zM2146 1528h508q0 156 -16.5 289t-48.5 243 h-443v-532zM2146 897h422q33 111 55.5 244t30.5 293h-508v-537zM2146 274q82 57 192.5 182.5t196.5 342.5h-389v-525zM2478 328q184 70 338 190.5t264 284.5h-344q-53 -156 -120.5 -272.5t-137.5 -202.5z" />
<glyph unicode="x" horiz-adv-x="4104" d="M2621 1483l508 -508q57 -57 88 -133t31 -154t-30.5 -153.5t-88.5 -133.5q-61 -61 -135 -89.5t-151 -28.5q-78 0 -154 28.5t-133 89.5l-512 508l-508 -508q-61 -61 -135 -89.5t-152 -28.5t-153.5 28.5t-137.5 89.5q-57 57 -85.5 133t-28.5 154t28.5 151.5t90.5 135.5 l507 508l-507 512q-119 127 -119 286q0 78 30.5 154t88.5 133q57 57 132.5 88t153.5 31q160 0 287 -119l508 -508l512 508q127 119 287 119q78 0 153.5 -30.5t132.5 -88.5q119 -127 119 -287q0 -78 -30.5 -153.5t-88.5 -132.5z" />
<glyph unicode="y" horiz-adv-x="4100" d="M2056 2994q311 0 583.5 -116.5t475.5 -319.5t319.5 -475.5t116.5 -583.5t-116.5 -583.5t-319.5 -475t-475.5 -319.5t-583.5 -117t-583.5 117t-475 319.5t-319.5 475t-117 583.5t117 583.5t319.5 475.5t475 319.5t583.5 116.5zM2916 1712h-1720v-430h1720v430z" />
<glyph unicode="z" horiz-adv-x="4100" d="M442 1835h1184l389 1167l479 -1151h1151l-974 -696l479 -1159l-1098 692l-975 -676l336 1135z" />
<glyph unicode="{" d="M1479 815q-90 0 -90 90q0 61 38.5 174t169.5 244l74 74q82 82 110.5 135t28.5 119q0 61 -26.5 100t-79.5 39q-61 0 -81.5 -43t-29.5 -113q-4 -45 -32.5 -67.5t-65.5 -22.5q-57 0 -75.5 39t-18.5 80q0 127 77.5 207t217.5 80q156 0 241.5 -76t85.5 -227q0 -164 -139 -308 l-131 -131q-66 -61 -98.5 -112.5t-48.5 -100.5h311q53 0 84 -18.5t31 -71.5t-31 -71.5t-84 -18.5h-438zM2441 1040h-266q-115 0 -115 86q0 45 29 115l311 639q20 49 47 63.5t80 14.5q57 0 82 -28.5t25 -69.5v-652h37q29 0 57.5 -18.5t28.5 -63.5q0 -49 -29 -67.5t-57 -18.5 h-37v-131q0 -115 -94 -114q-45 0 -72 28.5t-27 85.5v131zM2441 1663l-213 -455h213v455zM3097 2327q164 -188 258 -424t94 -506q0 -291 -110.5 -545t-301 -444.5t-446.5 -301t-543 -110.5q-291 0 -547 110.5t-446.5 301t-301 444.5t-110.5 545t110.5 547t301 446t446.5 301 t547 111q131 0 254 -25l45 221l569 -499l-716 -246l45 229q-49 8 -98.5 14.5t-98.5 6.5q-229 0 -430 -86t-352.5 -237.5t-237.5 -352.5t-86 -430t86 -428t237.5 -350.5t352.5 -237.5t430 -86q225 0 426 86t352.5 237.5t237.5 350t86 428.5q0 246 -98.5 456.5t-266.5 362.5z " />
<glyph unicode="|" horiz-adv-x="4096" d="M3445 1913q111 0 190.5 -86t79.5 -205q0 -94 -49 -168t-131 -106q-4 -20 -6 -45t-11 -46l-204 -733q-45 -156 -188.5 -258t-307.5 -102h-1511q-82 0 -160 26.5t-143.5 75.5t-114.5 114.5t-70 143.5l-196 733l-13 78q-94 20 -159.5 100.5t-65.5 186.5q0 119 78 205t192 86 h365v-17q0 -123 86 -208q86 -86 205 -86t205 86l229 225h549l213 -213q86 -86 205 -86t204 86q45 45 65.5 100t20.5 113h443zM1454 496q106 33 107 131q0 25 -5 37l-167 589q-12 45 -55.5 74t-92.5 29q-20 0 -33 -4q-106 -29 -106 -131q0 -25 4 -37l168 -590 q16 -45 55 -73.5t88 -28.5q25 0 37 4zM2195 1229q0 57 -43 96t-104 39q-57 0 -100 -39t-43 -96v-611q0 -57 43 -96t100 -39q61 0 104 39t43 96v611zM3006 1184q4 12 5 37q0 102 -107 131q-12 4 -33 4q-49 0 -90 -29t-53 -74l-172 -589q-4 -12 -4 -33q0 -45 30.5 -84 t79.5 -51q12 -4 37 -4q45 0 86 28.5t54 73.5zM1462 1782q-53 -53 -127 -53q-78 0 -127 53q-57 49 -57 127q0 74 57 131l615 614q8 78 63.5 133.5t136.5 55.5q66 0 117 -35t72 -92q20 -33 20 -62l619 -614q53 -61 53 -131q0 -74 -53 -127t-131 -53t-127 53l-565 565z" />
<glyph unicode="}" d="M2052 -4q-242 0 -455 92t-372.5 252t-251.5 373t-92 454q0 242 92 455t251.5 372.5t372.5 252t455 92.5t455 -92.5t372.5 -252t252 -372.5t92.5 -455t-92.5 -454.5t-252 -372.5t-372.5 -252t-455 -92zM2052 2159q-205 0 -387 -78t-317.5 -213t-213 -315.5t-77.5 -385.5 t77.5 -387t213 -317t317.5 -213t387 -78t385 78t315.5 213t213 317.5t77.5 386.5q0 205 -77.5 385.5t-213 315.5t-315.5 213t-385 78zM2884 1159q0 -180 -70 -335.5t-188 -274.5l-598 631v835q176 0 331.5 -67.5t272 -184t184.5 -272.5t68 -332zM2187 2474q-33 4 -67.5 4 h-67.5h-71.5t-67.5 -4v164h-78q-41 0 -71.5 30.5t-30.5 71.5v160q0 45 30.5 73.5t71.5 28.5h430q45 0 73.5 -28.5t28.5 -73.5v-160q0 -41 -28.5 -71.5t-73.5 -30.5h-78v-164zM3084 1995q-135 156 -303 266l119 143q33 33 74 33q29 0 57 -20l164 -140q33 -20 33 -73 q0 -37 -21 -58zM1647 1573q-12 0 -25 12l-135 135q-12 12 -12 25q0 16 12 29q12 12 24 12q16 0 29 -12l135 -136q12 -12 13 -28q0 -12 -13 -25q-12 -12 -28 -12zM1503 1376h-16l-176 86q-8 4 -17 21q-4 4 -4 16q0 8 4 12q12 20 33 21q12 0 16 -4l177 -82q16 -8 16 -21 q0 -8 2 -10t2 -6l-4 -12q-13 -21 -33 -21zM1847 1696q-25 0 -32 28l-66 181q-4 4 -4 12t4 16t20 17q4 4 13 4q29 0 37 -25l65 -180q0 -8 2 -10t2 -6l-4 -13q-8 -12 -20 -20q-9 0 -17 -4zM1262 1143q-41 0 -41 37t41 37h192q37 0 37 -37t-37 -37h-192zM2048 340q-37 0 -37 37 v192q0 37 37 37t37 -37v-192q0 -37 -37 -37zM1499 561q-20 0 -24 12q-12 12 -13 29q0 12 13 25l135 135q12 12 24 12q16 0 29 -12q8 -16 8 -25q0 -12 -8 -28l-135 -136q-13 -12 -29 -12zM1323 819q-20 0 -33 21q-4 4 -4 16q0 25 21 33l172 86q8 0 10 2t6 2q25 0 37 -21 q0 -8 2 -10t2 -6l-4 -12q-4 -16 -21 -21l-172 -86q-4 -4 -16 -4zM1765 393q-12 0 -16 4q-25 8 -25 33l5 12l73 181q8 25 33 24q8 0 10 -2t6 -2q20 -12 21 -37l-74 -188q-8 -25 -33 -25zM2359 406q-25 0 -37 20l-69 180q-4 4 -4 12q0 12 4 17q8 12 20 20q37 0 49 -20l74 -197 l-4 -12q-8 -16 -33 -20z" />
<glyph unicode="~" horiz-adv-x="4096" d="M2896 0h-1688q-115 0 -194.5 80t-79.5 194v1188q0 115 80 197t194 82v418q0 176 67.5 329.5t184.5 268t270.5 180t329.5 65.5q168 0 317.5 -57t268.5 -164q254 -229 254 -581q0 -82 -59.5 -143.5t-145.5 -61.5t-147.5 61.5t-61.5 143.5q0 94 -36.5 167.5t-96 123 t-137.5 74t-156 24.5q-90 0 -167.5 -35t-137 -92.5t-92.5 -135t-33 -167.5v-418h1266q115 0 194.5 -82t79.5 -197v-1188q0 -115 -79.5 -194.5t-194.5 -79.5zM2052 1323q-98 0 -167.5 -69.5t-69.5 -168.5q0 -70 34.5 -125t96.5 -88l-95 -458q0 -12 4 -17q8 -8 17 -8h352 q20 0 21 21l-13 57q-8 45 -28.5 137t-53.5 264q66 29 103 88.5t37 128.5q0 98 -70 168t-168 70z" />
<glyph unicode="&#xa1;" horiz-adv-x="4104" d="M1356 3006q229 0 422 -122q127 29 274 28q291 0 547 -110.5t446.5 -301t301 -446.5t110.5 -547q0 -86 -10 -170t-31 -166q94 -168 94 -372q0 -164 -61.5 -307.5t-170 -252t-251.5 -170t-307 -61.5q-115 0 -217.5 31t-196.5 88q-123 -25 -254 -25q-291 0 -547 111 t-446.5 301.5t-301 446.5t-110.5 546q0 82 8.5 156t24.5 147q-53 90 -82 192.5t-29 217.5q0 164 61.5 307.5t168 250t250 167.5t307.5 61zM1622 2421q-176 -66 -270 -193q-98 -123 -99 -282q0 -160 90 -283q90 -106 242 -176q74 -33 168 -59.5t201 -51.5q160 -33 258 -61 q86 -29 151 -82q53 -53 54 -135q0 -106 -107 -176q-106 -74 -282 -74q-127 0 -201 37q-41 20 -69.5 42.5t-49.5 47.5q-45 66 -82 143q-29 78 -82 123q-45 41 -123 41q-90 0 -147 -53q-57 -57 -57 -131q0 -127 90 -254q86 -131 229 -205q201 -106 504 -107q258 0 438 78 q188 74 287 217q98 135 98 312q0 143 -57 245q-53 98 -160 168q-98 66 -242 111q-143 45 -307 82q-70 16 -117 26.5t-79 18.5q-29 8 -55.5 20.5t-55.5 24.5q-49 20 -86 66q-29 37 -29 81q0 78 90 132q86 61 242 61q168 0 234 -53q70 -49 126 -156q41 -78 82 -111 q41 -41 123 -40q86 0 144 61q57 57 57 135q0 82 -41 160q-53 86 -139 156q-45 33 -102.5 63.5t-127.5 50.5q-135 41 -327 41q-238 0 -414 -61z" />
<glyph unicode="&#xa2;" />
<glyph unicode="&#xa3;" horiz-adv-x="4096" />
<glyph unicode="&#xa4;" horiz-adv-x="3411" />
<glyph unicode="&#xa5;" horiz-adv-x="4100" />
<glyph unicode="&#xa6;" horiz-adv-x="3411" />
<glyph unicode="&#xa7;" horiz-adv-x="3411" />
<glyph unicode="&#xa8;" horiz-adv-x="3411" />
<glyph unicode="&#xa9;" horiz-adv-x="3411" />
<glyph unicode="&#xaa;" horiz-adv-x="4104" d="M3240 3002q131 0 221 -90t90 -221v-881q0 -57 -22.5 -116.5t-67.5 -104.5l-1528 -1519q-74 -74 -176 -74t-176 74l-958 962q-37 33 -55.5 80t-18.5 92q0 102 74 176l1519 1528q94 94 221 94h877zM1221 1122l987 987l-148 152l-987 -987zM2531 1802l-147 148l-987 -987 l147 -148zM2855 1491l-148 151l-987 -987l148 -151zM2990 2167q111 0 190.5 80t79.5 190q0 111 -79.5 190.5t-190.5 79.5t-190.5 -79.5t-79.5 -190.5t79.5 -190.5t190.5 -79.5z" />
<glyph unicode="&#xab;" horiz-adv-x="3411" />
<glyph unicode="&#xac;" horiz-adv-x="3411" />
<glyph unicode="&#xad;" horiz-adv-x="3411" />
<glyph unicode="&#xae;" horiz-adv-x="3411" />
<glyph unicode="&#xaf;" horiz-adv-x="3411" />
<glyph unicode="&#xb0;" horiz-adv-x="3411" />
<glyph unicode="&#xb1;" horiz-adv-x="3411" />
<glyph unicode="&#xb3;" d="M3973 1765q-57 -78 -161.5 -141t-284.5 -80q-45 -291 -203 -542.5t-393.5 -442t-530.5 -311.5t-610 -154q-106 -12 -209 -12q-385 0 -755.5 149.5t-669.5 481.5q131 -106 292.5 -157.5t333.5 -51.5q221 0 436.5 94t370.5 295q-20 -8 -36.5 -8h-36.5q-94 0 -156 45 t-62 110q0 45 31 88t109 84q-70 -12 -123 -12q-147 0 -239.5 65.5t-137.5 135.5q41 57 98.5 86t155.5 45q-225 33 -329.5 123t-141.5 221q57 20 124.5 36.5t108.5 16.5q-102 41 -173.5 96.5t-117 117t-65.5 123t-20 118.5q356 -94 599.5 -178t436.5 -162q70 -29 147.5 -84 t171.5 -125q37 143 84 286.5t108.5 274.5t139.5 244t184 194q-8 -70 -49 -122q119 131 291 176q-4 -61 -67.5 -104.5t-120.5 -76.5q16 8 57 29t90 43.5t98.5 41t81.5 18.5q29 0 41 -21q4 -8 4 -20q0 -25 -30.5 -47.5t-71.5 -41t-80 -33t-51 -18.5l-86 -41q61 12 119 13 q123 0 239.5 -45t219 -121t182.5 -182.5t125 -229.5l32 -86q20 -8 41 -8h45q49 0 104.5 10t104.5 24.5t90 33t66 34.5q-33 -106 -133.5 -184t-263.5 -111q45 -12 102 -18t119 -6q127 -1 225 24z" />
<glyph unicode="&#xb4;" horiz-adv-x="3411" />
<glyph unicode="&#xb5;" horiz-adv-x="3411" />
<glyph unicode="&#xb6;" horiz-adv-x="3411" />
<glyph unicode="&#xb7;" horiz-adv-x="3411" />
<glyph unicode="&#xb8;" horiz-adv-x="3411" />
<glyph unicode="&#xb9;" horiz-adv-x="4505" d="M1642 4v1450h-364v545h364q0 233 8.5 399t43.5 276.5t108.5 176t204.5 98.5t329.5 41t485.5 8v-544q-188 0 -296.5 -8.5t-164 -35t-70 -82t-14.5 -153.5v-176h545v-545h-545v-1450h-635z" />
<glyph unicode="&#xba;" horiz-adv-x="4104" d="M2052 1954q94 0 178 -37t145.5 -98.5t98.5 -145.5t37 -178t-37 -178t-98.5 -145.5t-145.5 -98.5t-178 -37t-178 37t-145.5 98.5t-98.5 145.5t-37 178t37 178t98.5 145.5t145.5 98.5t178 37zM3240 1159q-20 -70 -49 -137.5t-62 -132.5l209 -230l-446 -450l-234 213 q-115 -70 -270 -115l-16 -311h-635l-21 311q-156 45 -270 115l-234 -213l-446 450l213 230q-70 123 -115 270l-315 21v635l315 20q45 147 115 270l-213 230l446 450l234 -213q115 70 270 115l21 311h635l16 -311q156 -45 270 -115l234 213l446 -450l-209 -230 q33 -66 61.5 -133t49.5 -137l315 -20v-635zM2052 758q152 0 287 57t237.5 157.5t159.5 235.5t57 287t-57 287t-159.5 237.5t-237.5 159.5t-287 57q-156 0 -289 -57t-235.5 -159.5t-159.5 -237.5t-57 -287t57 -287t159.5 -235.5t235.5 -157.5t289 -57z" />
<glyph unicode="&#xbb;" horiz-adv-x="3411" />
<glyph unicode="&#xbc;" horiz-adv-x="12709" d="M1642 4v1450h-364v545h364q0 233 8.5 399t43.5 276.5t108.5 176t204.5 98.5t329.5 41t485.5 8v-544q-188 0 -296.5 -8.5t-164 -35t-70 -82t-14.5 -153.5v-176h545v-545h-545v-1450h-635zM8061 266q0 -115 -79.5 -192.5t-190.5 -77.5t-188.5 78t-77.5 192 q0 455 -172 854.5t-471 698.5t-700.5 471t-856.5 172q-111 0 -188.5 77.5t-77.5 192.5q0 111 78 188.5t188 77.5q602 0 1089.5 -200.5t872.5 -585.5q397 -397 585.5 -882.5t188.5 -1063.5zM7095 266q0 365 -139.5 686.5t-379 561t-561 379t-690.5 139.5q-111 0 -188.5 -78 t-77.5 -189t78 -188.5t188 -77.5q258 0 481.5 -96t391.5 -264t264 -393.5t96 -479.5q0 -115 80 -192.5t190 -77.5q111 0 189 77.5t78 192.5zM5059 479q0 -98 39 -186t104.5 -153.5t153.5 -104.5t186 -39t186.5 39t154 104.5t104.5 153.5t39 186t-39 186.5t-104.5 154 t-153.5 104.5t-187 39q-98 0 -186 -39t-153.5 -104.5t-104.5 -154t-39 -186.5zM9159 0v2089h651v-2089h-651zM9482 3002q102 0 185 -45q78 -45 119 -114q45 -78 45 -172q0 -86 -45 -164q-45 -74 -119 -115q-82 -45 -189 -45q-98 0 -176 45q-86 45 -119 115q-41 70 -41 164 q0 102 41 172q45 74 119 114q78 45 180 45zM10203 1425q0 94 -2 186.5t-6 174.5q-8 176 -12 303h565l29 -287h16q29 53 86 111q61 61 139 106q78 53 185 86q111 33 233 33q168 0 299 -53q135 -53 238 -164q102 -115 155 -283q57 -172 58 -397v-1241h-651v1159q0 143 -33 238 q-33 98 -107 155q-66 53 -188 62q-86 -4 -156 -37q-66 -37 -110 -94q-20 -25 -37 -53.5t-29 -61.5q-8 -25 -16 -74q-4 -20 -6 -42.5t-2 -47.5v-1204h-648v1425z" />
<glyph unicode="&#xbd;" horiz-adv-x="12705" d="M1642 4v1450h-364v545h364q0 233 8.5 399t43.5 276.5t108.5 176t204.5 98.5t329.5 41t485.5 8v-544q-188 0 -296.5 -8.5t-164 -35t-70 -82t-14.5 -153.5v-176h545v-545h-545v-1450h-635zM8061 266q0 -115 -79.5 -192.5t-190.5 -77.5t-188.5 78t-77.5 192 q0 455 -172 854.5t-471 698.5t-700.5 471t-856.5 172q-111 0 -188.5 77.5t-77.5 192.5q0 111 78 188.5t188 77.5q602 0 1089.5 -200.5t872.5 -585.5q397 -397 585.5 -882.5t188.5 -1063.5zM7095 266q0 365 -139.5 686.5t-379 561t-561 379t-690.5 139.5q-111 0 -188.5 -78 t-77.5 -189t78 -188.5t188 -77.5q258 0 481.5 -96t391.5 -264t264 -393.5t96 -479.5q0 -115 80 -192.5t190 -77.5q111 0 189 77.5t78 192.5zM5059 479q0 -98 39 -186t104.5 -153.5t153.5 -104.5t186 -39t186.5 39t154 104.5t104.5 153.5t39 186t-39 186.5t-104.5 154 t-153.5 104.5t-187 39q-98 0 -186 -39t-153.5 -104.5t-104.5 -154t-39 -186.5zM10826 2884q0 -102 -94 -136q-53 -20 -106.5 -24t-106.5 -12q102 -66 145 -187t43 -248q0 -131 -41 -245q-20 -57 -75.5 -114.5t-113 -113t-100.5 -113t-43 -110.5q0 -57 58 -111 q74 -66 151.5 -131t141 -139t102.5 -164t39 -200q0 -209 -106.5 -373t-299.5 -250q-111 -49 -254 -78t-294 -29q-111 0 -221.5 18.5t-209 59.5t-176 104.5t-127.5 153.5q-78 152 -77 275q0 152 94 260t235.5 180t305 109t303.5 37q-25 66 -70 131t-53 139q-119 0 -238 32.5 t-213 110.5q-102 86 -149.5 201t-47.5 237q0 176 88.5 340t239.5 254q82 49 188.5 80t223.5 49.5t237.5 24.5t227.5 6q143 0 251.5 -8t141.5 -16zM10076 1802q20 8 32.5 10.5t21.5 6.5q12 4 16 4q-25 -8 -41 -13q-16 -4 -26.5 -8t-2.5 0q111 33 162 127t51 213 q0 94 -28.5 190.5t-79.5 174.5t-121 127t-152 49h-34.5t-34.5 -8q-111 -33 -160 -125t-49 -211q0 -94 28.5 -190.5t78 -176.5t119 -129t151.5 -49h34.5t34.5 8zM9958 369q123 0 219 34.5t161.5 94t100.5 133.5t35 147q0 135 -113 241.5t-354 106.5q-123 0 -219.5 -34.5 t-162 -94t-100 -133t-34.5 -147.5q0 -135 112.5 -241.5t354.5 -106.5zM12239 2359v-225h-524v-524h-226v524h-524v225h524v529h226v-529h524z" />
<glyph unicode="&#xbe;" horiz-adv-x="12296" />
<glyph unicode="&#xbf;" horiz-adv-x="4096" d="M2929 3002q106 0 180 -73.5t74 -180.5v-2498q0 -106 -74 -178t-180 -72h-1745q-106 0 -180 71.5t-74 178.5v2498q0 106 73.5 180t180.5 74h1745zM2040 123q37 0 61.5 26.5t24.5 59.5q0 37 -24.5 63.5t-61.5 26.5t-61.5 -26.5t-24.5 -63.5q0 -33 24.5 -59.5t61.5 -26.5z M3027 2826h-1946v-2425h1946v2425z" />
<glyph unicode="&#xc0;" horiz-adv-x="4104" />
<glyph unicode="&#xc1;" horiz-adv-x="4104" d="M4096 1769q-37 -53 -82 -98q-41 -37 -102.5 -71.5t-143.5 -38.5q33 -41 43.5 -84t10.5 -88q0 -33 -4.5 -66t-12.5 -53q-8 -29 -16 -49l-107 28l-57 -86q-70 12 -164 25q-82 8 -198.5 16t-260.5 8q-242 0 -551 -30.5t-673 -120.5q-295 -74 -567.5 -180.5t-485.5 -204.5 q-250 -115 -471 -242q12 25 29 45q8 20 18 41t10 37q0 25 -20 25q-16 4 -74 4q-66 0 -137.5 20.5t-87.5 114.5v20q0 53 45 100.5t110.5 86.5t143.5 69.5t143.5 51t106.5 33t37 12.5q-143 8 -219 61t-76 127t65 139h-24q-29 0 -68 4.5t-71.5 14.5t-59.5 28.5t-31 51.5 q0 49 53.5 83.5t119 59.5t116.5 37t47 12q-82 8 -121 41t-39 74q0 70 103 123q127 61 340 85.5t565 32.5q74 4 184.5 6.5t227 4.5t223 4t176.5 2q66 0 88.5 -24.5t22.5 -53.5q0 -37 -25 -53q156 -25 248 -57.5t162 -77.5q131 4 270 6t283 2q287 0 544.5 -12.5t413.5 -45.5z M1876 2048l-115 -238l-73 -49l151 17l41 82l111 8q53 8 88 36.5t55 69.5q4 8 8 18.5t4 18.5q0 41 -65 41zM1671 2040q-25 0 -55.5 -6t-65 -22.5t-69.5 -47.5t-60 -84q-20 -41 -20 -78q0 -41 28.5 -51t61.5 -10h33q25 0 55.5 6t63 22.5t67.5 47t59 88.5q25 49 25 77 q0 37 -26.5 49.5t-59.5 12.5zM1143 1876l74 135q-45 -4 -82 -6t-70 -6q-37 -4 -70 -8l33 -41l-184 -324q29 8 74 18.5t102 22.5l78 131l135 21l-70 -123l197 33l-21 32l127 262h-57q-29 0 -63.5 -2t-75.5 -6l37 -69l-29 -50zM184 1540q0 -57 41 -71.5t86 -14.5q25 0 41.5 2 t24.5 2q12 4 81.5 28.5t147.5 53.5l205 74q8 12 16 28q8 12 14.5 26.5t6.5 35.5l-4 20q-12 49 -51 74t-72 37q-20 8 -67.5 24.5t-51.5 36.5q0 29 78 41q20 4 32.5 4.5t24.5 0.5h25l-4 -58l262 135q-111 -8 -217 -20q-90 -8 -180.5 -20.5t-143.5 -32.5q-70 -29 -90 -55.5 t-20 -47.5v-16q0 -4 4 -4q0 -4 18.5 -24.5t128.5 -53.5q66 -16 86.5 -41t20.5 -45q0 -12 -9 -29q-4 -8 -8 -12l-213 -66q-29 0 -28 21q0 25 37 61q45 53 65.5 63.5t24.5 10.5q-4 0 -53.5 -10t-106.5 -33t-104.5 -53.5t-47.5 -71.5zM1212 954q12 25 25 50q8 20 18.5 46.5 t10.5 59.5q0 16 -9 49q-25 86 -98.5 123t-130.5 57q-16 4 -51 14.5t-72 23t-63.5 26.5t-30.5 35q0 53 131 78q49 12 86 14t66 2l-9 -107l455 275q-205 -25 -389 -58q-78 -12 -160 -28.5t-157.5 -34.5t-141 -36.5t-110.5 -39.5q-115 -49 -148 -100t-33 -84q0 -20 4.5 -28.5 t4.5 -16.5q0 -4 8 -16.5t36.5 -26.5t80 -34.5t145.5 -37.5q123 -25 160 -65.5t37 -81.5q0 -16 -4.5 -30.5t-8.5 -23.5q-4 -12 -8 -20q-98 -33 -172 -61q-66 -25 -121 -45.5t-63 -24.5q-4 0 -10.5 -2t-14.5 -2q-16 0 -30.5 6t-14.5 27q0 16 12.5 42.5t44.5 67.5 q78 94 113 119t39 25q-4 0 -45 -12.5t-100.5 -33t-127 -49t-125 -67.5t-96.5 -84t-39 -94q8 -86 65.5 -113t127.5 -27q57 0 102 8.5t58 12.5q12 4 51 18.5t94 39t121 53t135 57.5q159 69 352 155zM3617 1606q111 4 178.5 26.5t104 47t49 47t16.5 30.5q-37 4 -78 12 q-33 4 -78 8.5t-86 4.5q-53 -45 -108.5 -84t-100.5 -43l70 127h-53h-59.5t-47.5 -4l-176 -320q0 37 -10 57.5t-22.5 33t-20.5 18.5t-4 6q8 0 28.5 8t41 24.5t37 39t16.5 55.5q-4 29 -24.5 47t-45.5 26.5t-47.5 12.5t-34.5 4q-33 4 -76 4h-92t-96 -2t-84 -2h-86l74 -139 l-62 -140q-8 33 -26.5 84.5t-61.5 104.5t-118.5 104t-190.5 84q94 -61 135 -151q-33 -74 -104.5 -147.5t-178.5 -168.5l140 340q-49 -4 -103 -12q-45 -8 -110.5 -14t-139.5 -15l74 -118l-45 -95l-242 -49l123 250q-78 -12 -145.5 -22.5t-124.5 -18.5l-123 -20l66 -70 l-295 -598q45 20 131 45t180 49l119 246l242 49l-111 -229q57 16 108.5 28.5t92.5 20.5l82 20l65 13l-41 57l21 16q8 4 24 21l12 8q94 66 196.5 143.5t148.5 135.5q16 -49 16 -107q0 -94 -33 -151.5t-45 -77.5l201 32q33 4 67.5 8.5t71.5 8.5l66 147q12 0 28 4q33 8 62 9 q41 0 77.5 -16.5t36.5 -61.5q0 -33 -16 -70l74 4l78 -4q25 0 55.5 -2t71.5 -6l106 209q25 0 41 -17q16 -12 30.5 -36.5t14.5 -69.5q0 -49 -16 -102q53 -8 100 -16.5t92 -16.5q4 20 12 45q8 20 12.5 44.5t4.5 57.5q0 57 -26.5 113t-104.5 76zM3150 1683q0 -8 -4 -26.5 t-22.5 -36.5t-53.5 -30.5t-96 -12.5h-29l49 111z" />
<glyph unicode="&#xc2;" horiz-adv-x="4104" d="M4096 1769q-37 -53 -82 -98q-41 -37 -102.5 -71.5t-143.5 -38.5q33 -41 43.5 -84t10.5 -88q0 -33 -4.5 -66t-12.5 -53q-8 -29 -16 -49l-107 28l-57 -86q-70 12 -164 25q-82 8 -198.5 16t-260.5 8q-242 0 -551 -30.5t-673 -120.5q-295 -74 -567.5 -180.5t-485.5 -204.5 q-250 -115 -471 -242q12 25 29 45q8 20 18 41t10 37q0 25 -20 25q-16 4 -74 4q-66 0 -137.5 20.5t-87.5 114.5v20q0 53 45 100.5t110.5 86.5t143.5 69.5t143.5 51t106.5 33t37 12.5q-143 8 -219 61t-76 127t65 139h-24q-29 0 -68 4.5t-71.5 14.5t-59.5 28.5t-31 51.5 q0 49 53.5 83.5t119 59.5t116.5 37t47 12q-82 8 -121 41t-39 74q0 70 103 123q127 61 340 85.5t565 32.5q74 4 184.5 6.5t227 4.5t223 4t176.5 2q66 0 88.5 -24.5t22.5 -53.5q0 -37 -25 -53q156 -25 248 -57.5t162 -77.5q131 4 270 6t283 2q287 0 544.5 -12.5t413.5 -45.5z M1876 2048l-115 -238l-73 -49l151 17l41 82l111 8q53 8 88 36.5t55 69.5q4 8 8 18.5t4 18.5q0 41 -65 41zM1671 2040q-25 0 -55.5 -6t-65 -22.5t-69.5 -47.5t-60 -84q-20 -41 -20 -78q0 -41 28.5 -51t61.5 -10h33q25 0 55.5 6t63 22.5t67.5 47t59 88.5q25 49 25 77 q0 37 -26.5 49.5t-59.5 12.5zM1143 1876l74 135q-45 -4 -82 -6t-70 -6q-37 -4 -70 -8l33 -41l-184 -324q29 8 74 18.5t102 22.5l78 131l135 21l-70 -123l197 33l-21 32l127 262h-57q-29 0 -63.5 -2t-75.5 -6l37 -69l-29 -50zM184 1540q0 -57 41 -71.5t86 -14.5q25 0 41.5 2 t24.5 2q12 4 81.5 28.5t147.5 53.5l205 74q8 12 16 28q8 12 14.5 26.5t6.5 35.5l-4 20q-12 49 -51 74t-72 37q-20 8 -67.5 24.5t-51.5 36.5q0 29 78 41q20 4 32.5 4.5t24.5 0.5h25l-4 -58l262 135q-111 -8 -217 -20q-90 -8 -180.5 -20.5t-143.5 -32.5q-70 -29 -90 -55.5 t-20 -47.5v-16q0 -4 4 -4q0 -4 18.5 -24.5t128.5 -53.5q66 -16 86.5 -41t20.5 -45q0 -12 -9 -29q-4 -8 -8 -12l-213 -66q-29 0 -28 21q0 25 37 61q45 53 65.5 63.5t24.5 10.5q-4 0 -53.5 -10t-106.5 -33t-104.5 -53.5t-47.5 -71.5zM1212 954q12 25 25 50q8 20 18.5 46.5 t10.5 59.5q0 16 -9 49q-25 86 -98.5 123t-130.5 57q-16 4 -51 14.5t-72 23t-63.5 26.5t-30.5 35q0 53 131 78q49 12 86 14t66 2l-9 -107l455 275q-205 -25 -389 -58q-78 -12 -160 -28.5t-157.5 -34.5t-141 -36.5t-110.5 -39.5q-115 -49 -148 -100t-33 -84q0 -20 4.5 -28.5 t4.5 -16.5q0 -4 8 -16.5t36.5 -26.5t80 -34.5t145.5 -37.5q123 -25 160 -65.5t37 -81.5q0 -16 -4.5 -30.5t-8.5 -23.5q-4 -12 -8 -20q-98 -33 -172 -61q-66 -25 -121 -45.5t-63 -24.5q-4 0 -10.5 -2t-14.5 -2q-16 0 -30.5 6t-14.5 27q0 16 12.5 42.5t44.5 67.5 q78 94 113 119t39 25q-4 0 -45 -12.5t-100.5 -33t-127 -49t-125 -67.5t-96.5 -84t-39 -94q8 -86 65.5 -113t127.5 -27q57 0 102 8.5t58 12.5q12 4 51 18.5t94 39t121 53t135 57.5q159 69 352 155zM3617 1606q111 4 178.5 26.5t104 47t49 47t16.5 30.5q-37 4 -78 12 q-33 4 -78 8.5t-86 4.5q-53 -45 -108.5 -84t-100.5 -43l70 127h-53h-59.5t-47.5 -4l-176 -320q0 37 -10 57.5t-22.5 33t-20.5 18.5t-4 6q8 0 28.5 8t41 24.5t37 39t16.5 55.5q-4 29 -24.5 47t-45.5 26.5t-47.5 12.5t-34.5 4q-33 4 -76 4h-92t-96 -2t-84 -2h-86l74 -139 l-62 -140q-8 33 -26.5 84.5t-61.5 104.5t-118.5 104t-190.5 84q94 -61 135 -151q-33 -74 -104.5 -147.5t-178.5 -168.5l140 340q-49 -4 -103 -12q-45 -8 -110.5 -14t-139.5 -15l74 -118l-45 -95l-242 -49l123 250q-78 -12 -145.5 -22.5t-124.5 -18.5l-123 -20l66 -70 l-295 -598q45 20 131 45t180 49l119 246l242 49l-111 -229q57 16 108.5 28.5t92.5 20.5l82 20l65 13l-41 57l21 16q8 4 24 21l12 8q94 66 196.5 143.5t148.5 135.5q16 -49 16 -107q0 -94 -33 -151.5t-45 -77.5l201 32q33 4 67.5 8.5t71.5 8.5l66 147q12 0 28 4q33 8 62 9 q41 0 77.5 -16.5t36.5 -61.5q0 -33 -16 -70l74 4l78 -4q25 0 55.5 -2t71.5 -6l106 209q25 0 41 -17q16 -12 30.5 -36.5t14.5 -69.5q0 -49 -16 -102q53 -8 100 -16.5t92 -16.5q4 20 12 45q8 20 12.5 44.5t4.5 57.5q0 57 -26.5 113t-104.5 76zM3150 1683q0 -8 -4 -26.5 t-22.5 -36.5t-53.5 -30.5t-96 -12.5h-29l49 111z" />
<glyph unicode="&#xc3;" horiz-adv-x="4104" d="M4096 1769q-37 -53 -82 -98q-41 -37 -102.5 -71.5t-143.5 -38.5q33 -41 43.5 -84t10.5 -88q0 -33 -4.5 -66t-12.5 -53q-8 -29 -16 -49l-107 28l-57 -86q-70 12 -164 25q-82 8 -198.5 16t-260.5 8q-242 0 -551 -30.5t-673 -120.5q-295 -74 -567.5 -180.5t-485.5 -204.5 q-250 -115 -471 -242q12 25 29 45q8 20 18 41t10 37q0 25 -20 25q-16 4 -74 4q-66 0 -137.5 20.5t-87.5 114.5v20q0 53 45 100.5t110.5 86.5t143.5 69.5t143.5 51t106.5 33t37 12.5q-143 8 -219 61t-76 127t65 139h-24q-29 0 -68 4.5t-71.5 14.5t-59.5 28.5t-31 51.5 q0 49 53.5 83.5t119 59.5t116.5 37t47 12q-82 8 -121 41t-39 74q0 70 103 123q127 61 340 85.5t565 32.5q74 4 184.5 6.5t227 4.5t223 4t176.5 2q66 0 88.5 -24.5t22.5 -53.5q0 -37 -25 -53q156 -25 248 -57.5t162 -77.5q131 4 270 6t283 2q287 0 544.5 -12.5t413.5 -45.5z M1876 2048l-115 -238l-73 -49l151 17l41 82l111 8q53 8 88 36.5t55 69.5q4 8 8 18.5t4 18.5q0 41 -65 41zM1671 2040q-25 0 -55.5 -6t-65 -22.5t-69.5 -47.5t-60 -84q-20 -41 -20 -78q0 -41 28.5 -51t61.5 -10h33q25 0 55.5 6t63 22.5t67.5 47t59 88.5q25 49 25 77 q0 37 -26.5 49.5t-59.5 12.5zM1143 1876l74 135q-45 -4 -82 -6t-70 -6q-37 -4 -70 -8l33 -41l-184 -324q29 8 74 18.5t102 22.5l78 131l135 21l-70 -123l197 33l-21 32l127 262h-57q-29 0 -63.5 -2t-75.5 -6l37 -69l-29 -50zM184 1540q0 -57 41 -71.5t86 -14.5q25 0 41.5 2 t24.5 2q12 4 81.5 28.5t147.5 53.5l205 74q8 12 16 28q8 12 14.5 26.5t6.5 35.5l-4 20q-12 49 -51 74t-72 37q-20 8 -67.5 24.5t-51.5 36.5q0 29 78 41q20 4 32.5 4.5t24.5 0.5h25l-4 -58l262 135q-111 -8 -217 -20q-90 -8 -180.5 -20.5t-143.5 -32.5q-70 -29 -90 -55.5 t-20 -47.5v-16q0 -4 4 -4q0 -4 18.5 -24.5t128.5 -53.5q66 -16 86.5 -41t20.5 -45q0 -12 -9 -29q-4 -8 -8 -12l-213 -66q-29 0 -28 21q0 25 37 61q45 53 65.5 63.5t24.5 10.5q-4 0 -53.5 -10t-106.5 -33t-104.5 -53.5t-47.5 -71.5zM1212 954q12 25 25 50q8 20 18.5 46.5 t10.5 59.5q0 16 -9 49q-25 86 -98.5 123t-130.5 57q-16 4 -51 14.5t-72 23t-63.5 26.5t-30.5 35q0 53 131 78q49 12 86 14t66 2l-9 -107l455 275q-205 -25 -389 -58q-78 -12 -160 -28.5t-157.5 -34.5t-141 -36.5t-110.5 -39.5q-115 -49 -148 -100t-33 -84q0 -20 4.5 -28.5 t4.5 -16.5q0 -4 8 -16.5t36.5 -26.5t80 -34.5t145.5 -37.5q123 -25 160 -65.5t37 -81.5q0 -16 -4.5 -30.5t-8.5 -23.5q-4 -12 -8 -20q-98 -33 -172 -61q-66 -25 -121 -45.5t-63 -24.5q-4 0 -10.5 -2t-14.5 -2q-16 0 -30.5 6t-14.5 27q0 16 12.5 42.5t44.5 67.5 q78 94 113 119t39 25q-4 0 -45 -12.5t-100.5 -33t-127 -49t-125 -67.5t-96.5 -84t-39 -94q8 -86 65.5 -113t127.5 -27q57 0 102 8.5t58 12.5q12 4 51 18.5t94 39t121 53t135 57.5q159 69 352 155zM3617 1606q111 4 178.5 26.5t104 47t49 47t16.5 30.5q-37 4 -78 12 q-33 4 -78 8.5t-86 4.5q-53 -45 -108.5 -84t-100.5 -43l70 127h-53h-59.5t-47.5 -4l-176 -320q0 37 -10 57.5t-22.5 33t-20.5 18.5t-4 6q8 0 28.5 8t41 24.5t37 39t16.5 55.5q-4 29 -24.5 47t-45.5 26.5t-47.5 12.5t-34.5 4q-33 4 -76 4h-92t-96 -2t-84 -2h-86l74 -139 l-62 -140q-8 33 -26.5 84.5t-61.5 104.5t-118.5 104t-190.5 84q94 -61 135 -151q-33 -74 -104.5 -147.5t-178.5 -168.5l140 340q-49 -4 -103 -12q-45 -8 -110.5 -14t-139.5 -15l74 -118l-45 -95l-242 -49l123 250q-78 -12 -145.5 -22.5t-124.5 -18.5l-123 -20l66 -70 l-295 -598q45 20 131 45t180 49l119 246l242 49l-111 -229q57 16 108.5 28.5t92.5 20.5l82 20l65 13l-41 57l21 16q8 4 24 21l12 8q94 66 196.5 143.5t148.5 135.5q16 -49 16 -107q0 -94 -33 -151.5t-45 -77.5l201 32q33 4 67.5 8.5t71.5 8.5l66 147q12 0 28 4q33 8 62 9 q41 0 77.5 -16.5t36.5 -61.5q0 -33 -16 -70l74 4l78 -4q25 0 55.5 -2t71.5 -6l106 209q25 0 41 -17q16 -12 30.5 -36.5t14.5 -69.5q0 -49 -16 -102q53 -8 100 -16.5t92 -16.5q4 20 12 45q8 20 12.5 44.5t4.5 57.5q0 57 -26.5 113t-104.5 76zM3150 1683q0 -8 -4 -26.5 t-22.5 -36.5t-53.5 -30.5t-96 -12.5h-29l49 111z" />
<glyph unicode="&#xc4;" horiz-adv-x="4104" d="M4096 1769q-37 -53 -82 -98q-41 -37 -102.5 -71.5t-143.5 -38.5q33 -41 43.5 -84t10.5 -88q0 -33 -4.5 -66t-12.5 -53q-8 -29 -16 -49l-107 28l-57 -86q-70 12 -164 25q-82 8 -198.5 16t-260.5 8q-242 0 -551 -30.5t-673 -120.5q-295 -74 -567.5 -180.5t-485.5 -204.5 q-250 -115 -471 -242q12 25 29 45q8 20 18 41t10 37q0 25 -20 25q-16 4 -74 4q-66 0 -137.5 20.5t-87.5 114.5v20q0 53 45 100.5t110.5 86.5t143.5 69.5t143.5 51t106.5 33t37 12.5q-143 8 -219 61t-76 127t65 139h-24q-29 0 -68 4.5t-71.5 14.5t-59.5 28.5t-31 51.5 q0 49 53.5 83.5t119 59.5t116.5 37t47 12q-82 8 -121 41t-39 74q0 70 103 123q127 61 340 85.5t565 32.5q74 4 184.5 6.5t227 4.5t223 4t176.5 2q66 0 88.5 -24.5t22.5 -53.5q0 -37 -25 -53q156 -25 248 -57.5t162 -77.5q131 4 270 6t283 2q287 0 544.5 -12.5t413.5 -45.5z M1876 2048l-115 -238l-73 -49l151 17l41 82l111 8q53 8 88 36.5t55 69.5q4 8 8 18.5t4 18.5q0 41 -65 41zM1671 2040q-25 0 -55.5 -6t-65 -22.5t-69.5 -47.5t-60 -84q-20 -41 -20 -78q0 -41 28.5 -51t61.5 -10h33q25 0 55.5 6t63 22.5t67.5 47t59 88.5q25 49 25 77 q0 37 -26.5 49.5t-59.5 12.5zM1143 1876l74 135q-45 -4 -82 -6t-70 -6q-37 -4 -70 -8l33 -41l-184 -324q29 8 74 18.5t102 22.5l78 131l135 21l-70 -123l197 33l-21 32l127 262h-57q-29 0 -63.5 -2t-75.5 -6l37 -69l-29 -50zM184 1540q0 -57 41 -71.5t86 -14.5q25 0 41.5 2 t24.5 2q12 4 81.5 28.5t147.5 53.5l205 74q8 12 16 28q8 12 14.5 26.5t6.5 35.5l-4 20q-12 49 -51 74t-72 37q-20 8 -67.5 24.5t-51.5 36.5q0 29 78 41q20 4 32.5 4.5t24.5 0.5h25l-4 -58l262 135q-111 -8 -217 -20q-90 -8 -180.5 -20.5t-143.5 -32.5q-70 -29 -90 -55.5 t-20 -47.5v-16q0 -4 4 -4q0 -4 18.5 -24.5t128.5 -53.5q66 -16 86.5 -41t20.5 -45q0 -12 -9 -29q-4 -8 -8 -12l-213 -66q-29 0 -28 21q0 25 37 61q45 53 65.5 63.5t24.5 10.5q-4 0 -53.5 -10t-106.5 -33t-104.5 -53.5t-47.5 -71.5zM1212 954q12 25 25 50q8 20 18.5 46.5 t10.5 59.5q0 16 -9 49q-25 86 -98.5 123t-130.5 57q-16 4 -51 14.5t-72 23t-63.5 26.5t-30.5 35q0 53 131 78q49 12 86 14t66 2l-9 -107l455 275q-205 -25 -389 -58q-78 -12 -160 -28.5t-157.5 -34.5t-141 -36.5t-110.5 -39.5q-115 -49 -148 -100t-33 -84q0 -20 4.5 -28.5 t4.5 -16.5q0 -4 8 -16.5t36.5 -26.5t80 -34.5t145.5 -37.5q123 -25 160 -65.5t37 -81.5q0 -16 -4.5 -30.5t-8.5 -23.5q-4 -12 -8 -20q-98 -33 -172 -61q-66 -25 -121 -45.5t-63 -24.5q-4 0 -10.5 -2t-14.5 -2q-16 0 -30.5 6t-14.5 27q0 16 12.5 42.5t44.5 67.5 q78 94 113 119t39 25q-4 0 -45 -12.5t-100.5 -33t-127 -49t-125 -67.5t-96.5 -84t-39 -94q8 -86 65.5 -113t127.5 -27q57 0 102 8.5t58 12.5q12 4 51 18.5t94 39t121 53t135 57.5q159 69 352 155zM3617 1606q111 4 178.5 26.5t104 47t49 47t16.5 30.5q-37 4 -78 12 q-33 4 -78 8.5t-86 4.5q-53 -45 -108.5 -84t-100.5 -43l70 127h-53h-59.5t-47.5 -4l-176 -320q0 37 -10 57.5t-22.5 33t-20.5 18.5t-4 6q8 0 28.5 8t41 24.5t37 39t16.5 55.5q-4 29 -24.5 47t-45.5 26.5t-47.5 12.5t-34.5 4q-33 4 -76 4h-92t-96 -2t-84 -2h-86l74 -139 l-62 -140q-8 33 -26.5 84.5t-61.5 104.5t-118.5 104t-190.5 84q94 -61 135 -151q-33 -74 -104.5 -147.5t-178.5 -168.5l140 340q-49 -4 -103 -12q-45 -8 -110.5 -14t-139.5 -15l74 -118l-45 -95l-242 -49l123 250q-78 -12 -145.5 -22.5t-124.5 -18.5l-123 -20l66 -70 l-295 -598q45 20 131 45t180 49l119 246l242 49l-111 -229q57 16 108.5 28.5t92.5 20.5l82 20l65 13l-41 57l21 16q8 4 24 21l12 8q94 66 196.5 143.5t148.5 135.5q16 -49 16 -107q0 -94 -33 -151.5t-45 -77.5l201 32q33 4 67.5 8.5t71.5 8.5l66 147q12 0 28 4q33 8 62 9 q41 0 77.5 -16.5t36.5 -61.5q0 -33 -16 -70l74 4l78 -4q25 0 55.5 -2t71.5 -6l106 209q25 0 41 -17q16 -12 30.5 -36.5t14.5 -69.5q0 -49 -16 -102q53 -8 100 -16.5t92 -16.5q4 20 12 45q8 20 12.5 44.5t4.5 57.5q0 57 -26.5 113t-104.5 76zM3150 1683q0 -8 -4 -26.5 t-22.5 -36.5t-53.5 -30.5t-96 -12.5h-29l49 111z" />
<glyph unicode="&#xc5;" horiz-adv-x="4104" d="M4096 1769q-37 -53 -82 -98q-41 -37 -102.5 -71.5t-143.5 -38.5q33 -41 43.5 -84t10.5 -88q0 -33 -4.5 -66t-12.5 -53q-8 -29 -16 -49l-107 28l-57 -86q-70 12 -164 25q-82 8 -198.5 16t-260.5 8q-242 0 -551 -30.5t-673 -120.5q-295 -74 -567.5 -180.5t-485.5 -204.5 q-250 -115 -471 -242q12 25 29 45q8 20 18 41t10 37q0 25 -20 25q-16 4 -74 4q-66 0 -137.5 20.5t-87.5 114.5v20q0 53 45 100.5t110.5 86.5t143.5 69.5t143.5 51t106.5 33t37 12.5q-143 8 -219 61t-76 127t65 139h-24q-29 0 -68 4.5t-71.5 14.5t-59.5 28.5t-31 51.5 q0 49 53.5 83.5t119 59.5t116.5 37t47 12q-82 8 -121 41t-39 74q0 70 103 123q127 61 340 85.5t565 32.5q74 4 184.5 6.5t227 4.5t223 4t176.5 2q66 0 88.5 -24.5t22.5 -53.5q0 -37 -25 -53q156 -25 248 -57.5t162 -77.5q131 4 270 6t283 2q287 0 544.5 -12.5t413.5 -45.5z M1876 2048l-115 -238l-73 -49l151 17l41 82l111 8q53 8 88 36.5t55 69.5q4 8 8 18.5t4 18.5q0 41 -65 41zM1671 2040q-25 0 -55.5 -6t-65 -22.5t-69.5 -47.5t-60 -84q-20 -41 -20 -78q0 -41 28.5 -51t61.5 -10h33q25 0 55.5 6t63 22.5t67.5 47t59 88.5q25 49 25 77 q0 37 -26.5 49.5t-59.5 12.5zM1143 1876l74 135q-45 -4 -82 -6t-70 -6q-37 -4 -70 -8l33 -41l-184 -324q29 8 74 18.5t102 22.5l78 131l135 21l-70 -123l197 33l-21 32l127 262h-57q-29 0 -63.5 -2t-75.5 -6l37 -69l-29 -50zM184 1540q0 -57 41 -71.5t86 -14.5q25 0 41.5 2 t24.5 2q12 4 81.5 28.5t147.5 53.5l205 74q8 12 16 28q8 12 14.5 26.5t6.5 35.5l-4 20q-12 49 -51 74t-72 37q-20 8 -67.5 24.5t-51.5 36.5q0 29 78 41q20 4 32.5 4.5t24.5 0.5h25l-4 -58l262 135q-111 -8 -217 -20q-90 -8 -180.5 -20.5t-143.5 -32.5q-70 -29 -90 -55.5 t-20 -47.5v-16q0 -4 4 -4q0 -4 18.5 -24.5t128.5 -53.5q66 -16 86.5 -41t20.5 -45q0 -12 -9 -29q-4 -8 -8 -12l-213 -66q-29 0 -28 21q0 25 37 61q45 53 65.5 63.5t24.5 10.5q-4 0 -53.5 -10t-106.5 -33t-104.5 -53.5t-47.5 -71.5zM1212 954q12 25 25 50q8 20 18.5 46.5 t10.5 59.5q0 16 -9 49q-25 86 -98.5 123t-130.5 57q-16 4 -51 14.5t-72 23t-63.5 26.5t-30.5 35q0 53 131 78q49 12 86 14t66 2l-9 -107l455 275q-205 -25 -389 -58q-78 -12 -160 -28.5t-157.5 -34.5t-141 -36.5t-110.5 -39.5q-115 -49 -148 -100t-33 -84q0 -20 4.5 -28.5 t4.5 -16.5q0 -4 8 -16.5t36.5 -26.5t80 -34.5t145.5 -37.5q123 -25 160 -65.5t37 -81.5q0 -16 -4.5 -30.5t-8.5 -23.5q-4 -12 -8 -20q-98 -33 -172 -61q-66 -25 -121 -45.5t-63 -24.5q-4 0 -10.5 -2t-14.5 -2q-16 0 -30.5 6t-14.5 27q0 16 12.5 42.5t44.5 67.5 q78 94 113 119t39 25q-4 0 -45 -12.5t-100.5 -33t-127 -49t-125 -67.5t-96.5 -84t-39 -94q8 -86 65.5 -113t127.5 -27q57 0 102 8.5t58 12.5q12 4 51 18.5t94 39t121 53t135 57.5q159 69 352 155zM3617 1606q111 4 178.5 26.5t104 47t49 47t16.5 30.5q-37 4 -78 12 q-33 4 -78 8.5t-86 4.5q-53 -45 -108.5 -84t-100.5 -43l70 127h-53h-59.5t-47.5 -4l-176 -320q0 37 -10 57.5t-22.5 33t-20.5 18.5t-4 6q8 0 28.5 8t41 24.5t37 39t16.5 55.5q-4 29 -24.5 47t-45.5 26.5t-47.5 12.5t-34.5 4q-33 4 -76 4h-92t-96 -2t-84 -2h-86l74 -139 l-62 -140q-8 33 -26.5 84.5t-61.5 104.5t-118.5 104t-190.5 84q94 -61 135 -151q-33 -74 -104.5 -147.5t-178.5 -168.5l140 340q-49 -4 -103 -12q-45 -8 -110.5 -14t-139.5 -15l74 -118l-45 -95l-242 -49l123 250q-78 -12 -145.5 -22.5t-124.5 -18.5l-123 -20l66 -70 l-295 -598q45 20 131 45t180 49l119 246l242 49l-111 -229q57 16 108.5 28.5t92.5 20.5l82 20l65 13l-41 57l21 16q8 4 24 21l12 8q94 66 196.5 143.5t148.5 135.5q16 -49 16 -107q0 -94 -33 -151.5t-45 -77.5l201 32q33 4 67.5 8.5t71.5 8.5l66 147q12 0 28 4q33 8 62 9 q41 0 77.5 -16.5t36.5 -61.5q0 -33 -16 -70l74 4l78 -4q25 0 55.5 -2t71.5 -6l106 209q25 0 41 -17q16 -12 30.5 -36.5t14.5 -69.5q0 -49 -16 -102q53 -8 100 -16.5t92 -16.5q4 20 12 45q8 20 12.5 44.5t4.5 57.5q0 57 -26.5 113t-104.5 76zM3150 1683q0 -8 -4 -26.5 t-22.5 -36.5t-53.5 -30.5t-96 -12.5h-29l49 111z" />
<glyph unicode="&#xc6;" horiz-adv-x="8196" d="M4096 1769q-37 -53 -82 -98q-41 -37 -102.5 -71.5t-143.5 -38.5q33 -41 43.5 -84t10.5 -88q0 -33 -4.5 -66t-12.5 -53q-8 -29 -16 -49l-107 28l-57 -86q-70 12 -164 25q-82 8 -198.5 16t-260.5 8q-242 0 -551 -30.5t-673 -120.5q-295 -74 -567.5 -180.5t-485.5 -204.5 q-250 -115 -471 -242q12 25 29 45q8 20 18 41t10 37q0 25 -20 25q-16 4 -74 4q-66 0 -137.5 20.5t-87.5 114.5v20q0 53 45 100.5t110.5 86.5t143.5 69.5t143.5 51t106.5 33t37 12.5q-143 8 -219 61t-76 127t65 139h-24q-29 0 -68 4.5t-71.5 14.5t-59.5 28.5t-31 51.5 q0 49 53.5 83.5t119 59.5t116.5 37t47 12q-82 8 -121 41t-39 74q0 70 103 123q127 61 340 85.5t565 32.5q74 4 184.5 6.5t227 4.5t223 4t176.5 2q66 0 88.5 -24.5t22.5 -53.5q0 -37 -25 -53q156 -25 248 -57.5t162 -77.5q131 4 270 6t283 2q287 0 544.5 -12.5t413.5 -45.5z M1876 2048l-115 -238l-73 -49l151 17l41 82l111 8q53 8 88 36.5t55 69.5q4 8 8 18.5t4 18.5q0 41 -65 41zM1671 2040q-25 0 -55.5 -6t-65 -22.5t-69.5 -47.5t-60 -84q-20 -41 -20 -78q0 -41 28.5 -51t61.5 -10h33q25 0 55.5 6t63 22.5t67.5 47t59 88.5q25 49 25 77 q0 37 -26.5 49.5t-59.5 12.5zM1143 1876l74 135q-45 -4 -82 -6t-70 -6q-37 -4 -70 -8l33 -41l-184 -324q29 8 74 18.5t102 22.5l78 131l135 21l-70 -123l197 33l-21 32l127 262h-57q-29 0 -63.5 -2t-75.5 -6l37 -69l-29 -50zM184 1540q0 -57 41 -71.5t86 -14.5q25 0 41.5 2 t24.5 2q12 4 81.5 28.5t147.5 53.5l205 74q8 12 16 28q8 12 14.5 26.5t6.5 35.5l-4 20q-12 49 -51 74t-72 37q-20 8 -67.5 24.5t-51.5 36.5q0 29 78 41q20 4 32.5 4.5t24.5 0.5h25l-4 -58l262 135q-111 -8 -217 -20q-90 -8 -180.5 -20.5t-143.5 -32.5q-70 -29 -90 -55.5 t-20 -47.5v-16q0 -4 4 -4q0 -4 18.5 -24.5t128.5 -53.5q66 -16 86.5 -41t20.5 -45q0 -12 -9 -29q-4 -8 -8 -12l-213 -66q-29 0 -28 21q0 25 37 61q45 53 65.5 63.5t24.5 10.5q-4 0 -53.5 -10t-106.5 -33t-104.5 -53.5t-47.5 -71.5zM1212 954q12 25 25 50q8 20 18.5 46.5 t10.5 59.5q0 16 -9 49q-25 86 -98.5 123t-130.5 57q-16 4 -51 14.5t-72 23t-63.5 26.5t-30.5 35q0 53 131 78q49 12 86 14t66 2l-9 -107l455 275q-205 -25 -389 -58q-78 -12 -160 -28.5t-157.5 -34.5t-141 -36.5t-110.5 -39.5q-115 -49 -148 -100t-33 -84q0 -20 4.5 -28.5 t4.5 -16.5q0 -4 8 -16.5t36.5 -26.5t80 -34.5t145.5 -37.5q123 -25 160 -65.5t37 -81.5q0 -16 -4.5 -30.5t-8.5 -23.5q-4 -12 -8 -20q-98 -33 -172 -61q-66 -25 -121 -45.5t-63 -24.5q-4 0 -10.5 -2t-14.5 -2q-16 0 -30.5 6t-14.5 27q0 16 12.5 42.5t44.5 67.5 q78 94 113 119t39 25q-4 0 -45 -12.5t-100.5 -33t-127 -49t-125 -67.5t-96.5 -84t-39 -94q8 -86 65.5 -113t127.5 -27q57 0 102 8.5t58 12.5q12 4 51 18.5t94 39t121 53t135 57.5q159 69 352 155zM3617 1606q111 4 178.5 26.5t104 47t49 47t16.5 30.5q-37 4 -78 12 q-33 4 -78 8.5t-86 4.5q-53 -45 -108.5 -84t-100.5 -43l70 127h-53h-59.5t-47.5 -4l-176 -320q0 37 -10 57.5t-22.5 33t-20.5 18.5t-4 6q8 0 28.5 8t41 24.5t37 39t16.5 55.5q-4 29 -24.5 47t-45.5 26.5t-47.5 12.5t-34.5 4q-33 4 -76 4h-92t-96 -2t-84 -2h-86l74 -139 l-62 -140q-8 33 -26.5 84.5t-61.5 104.5t-118.5 104t-190.5 84q94 -61 135 -151q-33 -74 -104.5 -147.5t-178.5 -168.5l140 340q-49 -4 -103 -12q-45 -8 -110.5 -14t-139.5 -15l74 -118l-45 -95l-242 -49l123 250q-78 -12 -145.5 -22.5t-124.5 -18.5l-123 -20l66 -70 l-295 -598q45 20 131 45t180 49l119 246l242 49l-111 -229q57 16 108.5 28.5t92.5 20.5l82 20l65 13l-41 57l21 16q8 4 24 21l12 8q94 66 196.5 143.5t148.5 135.5q16 -49 16 -107q0 -94 -33 -151.5t-45 -77.5l201 32q33 4 67.5 8.5t71.5 8.5l66 147q12 0 28 4q33 8 62 9 q41 0 77.5 -16.5t36.5 -61.5q0 -33 -16 -70l74 4l78 -4q25 0 55.5 -2t71.5 -6l106 209q25 0 41 -17q16 -12 30.5 -36.5t14.5 -69.5q0 -49 -16 -102q53 -8 100 -16.5t92 -16.5q4 20 12 45q8 20 12.5 44.5t4.5 57.5q0 57 -26.5 113t-104.5 76zM3150 1683q0 -8 -4 -26.5 t-22.5 -36.5t-53.5 -30.5t-96 -12.5h-29l49 111zM7274 1225h-2244v553h2244v-553z" />
<glyph unicode="&#xc7;" d="M2675 2691h90l-1348 -1348l1348 -1343h-90l-1344 1343z" />
<glyph unicode="&#xc8;" d="M3170 1225h-2244v553h2244v-553zM3142 1888q106 0 137 -43t31 -149v-1483q0 -106 -39 -161.5t-146 -55.5h-2166q-98 0 -133 39t-35 133v1544q0 106 39 141t145 35h258v299q0 168 63.5 317.5t174 260t260 176t321.5 65.5q168 0 317.5 -65.5t260 -176t176 -260t65.5 -317.5 v-299h271zM2257 1155q0 82 -59.5 141.5t-141.5 59.5t-141 -59.5t-59 -141.5v-422q0 -82 59 -141.5t141 -59.5t141.5 59.5t59.5 141.5v422zM2556 2187q0 102 -39 194.5t-108.5 162t-161.5 108.5t-195 39q-106 0 -196 -39t-160 -108.5t-109 -161.5t-39 -195v-299h1008v299z " />
<glyph unicode="&#xc9;" d="M3170 1225h-2244v553h2244v-553z" />
<glyph unicode="&#xca;" d="M3170 1225h-2244v553h2244v-553z" />
<glyph unicode="&#xcb;" d="M3170 1225h-2244v553h2244v-553z" />
<glyph unicode="&#xcc;" horiz-adv-x="4505" d="M2122 1618l721 -721l-82 -82l-721 721l-721 -721l-82 82l721 721l-721 721l82 82l721 -721l721 721l82 -82zM3343 1888q106 0 137 -43t31 -149v-1483q0 -106 -39 -161.5t-146 -55.5h-2166q-98 0 -133 39t-35 133v1544q0 106 39 141t145 35h258v299q0 168 63.5 317.5 t174 260t260 176t321.5 65.5q168 0 317.5 -65.5t260 -176t176 -260t65.5 -317.5v-299h271zM2458 1155q0 82 -59.5 141.5t-141.5 59.5t-141 -59.5t-59 -141.5v-422q0 -82 59 -141.5t141 -59.5t141.5 59.5t59.5 141.5v422zM2757 2187q0 102 -39 194.5t-108.5 162t-161.5 108.5 t-195 39q-106 0 -196 -39t-160 -108.5t-109 -161.5t-39 -195v-299h1008v299z" />
<glyph unicode="&#xcd;" horiz-adv-x="4505" d="M2122 1618l721 -721l-82 -82l-721 721l-721 -721l-82 82l721 721l-721 721l82 82l721 -721l721 721l82 -82z" />
<glyph unicode="&#xce;" horiz-adv-x="4505" d="M2122 1618l721 -721l-82 -82l-721 721l-721 -721l-82 82l721 721l-721 721l82 82l721 -721l721 721l82 -82z" />
<glyph unicode="&#xcf;" horiz-adv-x="4505" d="M2122 1618l721 -721l-82 -82l-721 721l-721 -721l-82 82l721 721l-721 721l82 82l721 -721l721 721l82 -82z" />
<glyph unicode="&#xd0;" />
<glyph unicode="&#xd1;" horiz-adv-x="4096" d="M3510 2306q0 -45 -30.5 -75.5t-75.5 -30.5h-2720q-45 0 -75.5 30.5t-30.5 75.5v274q0 45 30.5 76t75.5 31h2720q45 0 75.5 -30.5t30.5 -76.5v-274zM3510 1343q0 -45 -30.5 -73.5t-75.5 -28.5h-2720q-45 0 -75.5 28.5t-30.5 73.5v279q0 45 30.5 73.5t75.5 28.5h2720 q45 0 75.5 -28.5t30.5 -73.5v-279zM3510 385q0 -45 -30.5 -75.5t-75.5 -30.5h-2720q-45 0 -75.5 30.5t-30.5 75.5v274q0 45 30.5 74t75.5 29h2720q45 0 75.5 -28.5t30.5 -74.5v-274z" />
<glyph unicode="&#xd2;" horiz-adv-x="4096" />
<glyph unicode="&#xd3;" horiz-adv-x="4096" d="M2449 -1475q49 0 84 -34.5t35 -79.5v-918q0 -45 -34.5 -79.5t-84.5 -34.5h-847q-49 0 -84 34.5t-35 79.5v918q0 45 34.5 79.5t84.5 34.5h847zM2421 -1618h-791v-860h791v860zM2277 -2195h-503v73h503v-73zM2277 -2339h-503v74h503v-74zM2044 -1905q37 0 63.5 -26.5 t26.5 -67.5v-49h-319q-41 0 -46 4v45q0 41 27 67.5t64 26.5h57q-33 12 -53.5 41t-20.5 62q0 45 33 77.5t78 32.5t75.5 -32.5t30.5 -77.5q0 -74 -73 -103h57zM2941 2683q98 0 170 -69.5t72 -172.5v-1921q0 -102 -72 -171.5t-170 -69.5h-1790q-102 0 -172 69.5t-70 171.5v1921 q0 102 70 172t172 70h1790zM2875 2380h-1658v-1802h1658v1802zM2576 1176h-1065v151h1065v-151zM2576 877h-1065v147h1065v-147zM2085 1786q78 0 133 -57.5t55 -139.5v-106h-442.5t-227 2t-83.5 4l-13 2v98q0 82 55.5 139.5t133.5 57.5h119q-66 25 -109 84t-43 133 q0 94 67.5 159.5t161.5 65.5t162 -65.5t68 -159.5q0 -74 -43 -133.5t-113 -83.5h119z" />
<glyph unicode="&#xd4;" horiz-adv-x="4096" d="M2449 -1475q49 0 84 -34.5t35 -79.5v-918q0 -45 -34.5 -79.5t-84.5 -34.5h-847q-49 0 -84 34.5t-35 79.5v918q0 45 34.5 79.5t84.5 34.5h847zM2421 -1618h-791v-860h791v860zM2277 -2195h-503v73h503v-73zM2277 -2339h-503v74h503v-74zM2044 -1905q37 0 63.5 -26.5 t26.5 -67.5v-49h-319q-41 0 -46 4v45q0 41 27 67.5t64 26.5h57q-33 12 -53.5 41t-20.5 62q0 45 33 77.5t78 32.5t75.5 -32.5t30.5 -77.5q0 -74 -73 -103h57zM2941 2683q98 0 170 -69.5t72 -172.5v-1921q0 -102 -72 -171.5t-170 -69.5h-1790q-102 0 -172 69.5t-70 171.5v1921 q0 102 70 172t172 70h1790zM2875 2380h-1658v-1802h1658v1802zM2576 1176h-1065v151h1065v-151zM2576 877h-1065v147h1065v-147zM2085 1786q78 0 133 -57.5t55 -139.5v-106h-442.5t-227 2t-83.5 4l-13 2v98q0 82 55.5 139.5t133.5 57.5h119q-66 25 -109 84t-43 133 q0 94 67.5 159.5t161.5 65.5t162 -65.5t68 -159.5q0 -74 -43 -133.5t-113 -83.5h119z" />
<glyph unicode="&#xd5;" horiz-adv-x="4096" d="M2449 -1475q49 0 84 -34.5t35 -79.5v-918q0 -45 -34.5 -79.5t-84.5 -34.5h-847q-49 0 -84 34.5t-35 79.5v918q0 45 34.5 79.5t84.5 34.5h847zM2421 -1618h-791v-860h791v860zM2277 -2195h-503v73h503v-73zM2277 -2339h-503v74h503v-74zM2044 -1905q37 0 63.5 -26.5 t26.5 -67.5v-49h-319q-41 0 -46 4v45q0 41 27 67.5t64 26.5h57q-33 12 -53.5 41t-20.5 62q0 45 33 77.5t78 32.5t75.5 -32.5t30.5 -77.5q0 -74 -73 -103h57zM2941 2683q98 0 170 -69.5t72 -172.5v-1921q0 -102 -72 -171.5t-170 -69.5h-1790q-102 0 -172 69.5t-70 171.5v1921 q0 102 70 172t172 70h1790zM2875 2380h-1658v-1802h1658v1802zM2576 1176h-1065v151h1065v-151zM2576 877h-1065v147h1065v-147zM2085 1786q78 0 133 -57.5t55 -139.5v-106h-442.5t-227 2t-83.5 4l-13 2v98q0 82 55.5 139.5t133.5 57.5h119q-66 25 -109 84t-43 133 q0 94 67.5 159.5t161.5 65.5t162 -65.5t68 -159.5q0 -74 -43 -133.5t-113 -83.5h119z" />
<glyph unicode="&#xd6;" horiz-adv-x="4096" d="M2449 -1475q49 0 84 -34.5t35 -79.5v-918q0 -45 -34.5 -79.5t-84.5 -34.5h-847q-49 0 -84 34.5t-35 79.5v918q0 45 34.5 79.5t84.5 34.5h847zM2421 -1618h-791v-860h791v860zM2277 -2195h-503v73h503v-73zM2277 -2339h-503v74h503v-74zM2044 -1905q37 0 63.5 -26.5 t26.5 -67.5v-49h-319q-41 0 -46 4v45q0 41 27 67.5t64 26.5h57q-33 12 -53.5 41t-20.5 62q0 45 33 77.5t78 32.5t75.5 -32.5t30.5 -77.5q0 -74 -73 -103h57zM2941 2683q98 0 170 -69.5t72 -172.5v-1921q0 -102 -72 -171.5t-170 -69.5h-1790q-102 0 -172 69.5t-70 171.5v1921 q0 102 70 172t172 70h1790zM2875 2380h-1658v-1802h1658v1802zM2576 1176h-1065v151h1065v-151zM2576 877h-1065v147h1065v-147zM2085 1786q78 0 133 -57.5t55 -139.5v-106h-442.5t-227 2t-83.5 4l-13 2v98q0 82 55.5 139.5t133.5 57.5h119q-66 25 -109 84t-43 133 q0 94 67.5 159.5t161.5 65.5t162 -65.5t68 -159.5q0 -74 -43 -133.5t-113 -83.5h119z" />
<glyph unicode="&#xd7;" horiz-adv-x="3411" />
<glyph unicode="&#xd8;" horiz-adv-x="4096" />
<glyph unicode="&#xd9;" />
<glyph unicode="&#xda;" d="M2048 1995q131 299 313.5 426t362.5 127q123 0 237.5 -51.5t202.5 -141.5t141.5 -206.5t53.5 -247.5q0 -102 -35 -209t-117 -213q-311 -385 -530 -653.5t-359 -440.5q-164 -201 -270 -328q-98 127 -262 328q-139 172 -358.5 440.5t-538.5 657.5q-82 102 -119 208.5 t-37 209.5q0 131 53.5 247.5t141.5 206.5t202.5 141.5t241.5 51.5q180 0 362.5 -127t313.5 -426z" />
<glyph unicode="&#xdb;" d="M2048 1995q131 299 313.5 426t362.5 127q123 0 237.5 -51.5t202.5 -141.5t141.5 -206.5t53.5 -247.5q0 -102 -35 -209t-117 -213q-311 -385 -530 -653.5t-359 -440.5q-164 -201 -270 -328q-98 127 -262 328q-139 172 -358.5 440.5t-538.5 657.5q-82 102 -119 208.5 t-37 209.5q0 131 53.5 247.5t141.5 206.5t202.5 141.5t241.5 51.5q180 0 362.5 -127t313.5 -426z" />
<glyph unicode="&#xdc;" d="M2048 1995q131 299 313.5 426t362.5 127q123 0 237.5 -51.5t202.5 -141.5t141.5 -206.5t53.5 -247.5q0 -102 -35 -209t-117 -213q-311 -385 -530 -653.5t-359 -440.5q-164 -201 -270 -328q-98 127 -262 328q-139 172 -358.5 440.5t-538.5 657.5q-82 102 -119 208.5 t-37 209.5q0 131 53.5 247.5t141.5 206.5t202.5 141.5t241.5 51.5q180 0 362.5 -127t313.5 -426z" />
<glyph unicode="&#xdd;" horiz-adv-x="4100" d="M1901 12q-61 20 -13 82q16 8 37 22.5t41 22.5q25 37 43.5 76t46.5 72q-12 57 -47 112.5t-55 108.5q-12 53 -28.5 112.5t-53.5 100.5q-12 29 -12 74q25 90 45 174t77 161q0 41 21 46q0 20 12.5 38.5t12.5 34.5q-57 29 -80 72t-43 100q-37 25 -45 41q-33 4 -74 37 q-45 49 -57 62h-66h-209q-41 16 -98 81q-20 0 -41 21q-57 -16 -86 16q0 37 22.5 43.5t38.5 34.5q25 0 47.5 2t42.5 6q-20 4 -51 4t-51 13q0 4 -2 6t-2 10q29 41 94.5 20.5t93.5 -40.5q4 -12 14.5 -24.5t22.5 -24.5q41 -4 82 8t82 20q-8 66 -25 82q-111 20 -159 33 q-66 -12 -131.5 -2t-130.5 14q-25 16 -41.5 22.5t-77.5 43.5q-12 12 -49 41q-4 -4 -54 -70q-66 -111 -125 -215t-120 -207q-4 -12 -41 -74q-16 -41 -43 -118.5t-84 -73.5q8 49 32.5 96t44.5 92q4 25 9 66q0 123 -2 309t141 256v30.5v31.5q-12 25 -2 43t6 43q20 20 22.5 55 t30.5 43h58q20 41 28 45q0 74 82 160q25 20 53.5 38.5t53.5 38.5q70 33 141.5 57.5t124.5 78.5q12 12 22.5 30.5t26.5 38.5q33 53 33 62q0 57 39 47t35 -47q-45 -45 -82 -119q-41 -25 -66 -82q-33 -29 -51.5 -65.5t-30.5 -69.5q-98 -152 -176 -320q-25 -16 -20 -32 q74 -20 145.5 -22.5t140.5 -31.5q20 -12 33 -28h122.5h127.5q4 8 4 12q-8 16 -33 0q-90 -4 -110 119q-4 8 -17 45q-33 37 -8 49t53 37q-8 74 -8 88v27q29 41 8 90q0 119 152 118q4 -4 14 -6t19 -2q12 4 42.5 16.5t47.5 24.5h22.5h22.5q74 -29 115 -37q8 -20 20 -41 q25 8 92.5 18.5t54.5 -50.5q-20 -4 -45 -5q8 -16 21 -24q0 -20 -10.5 -36.5t-1.5 -37.5q20 -8 57 -24q29 4 41 12q8 -20 -16.5 -47t-16.5 -43q4 -4 12.5 -6t12.5 -15q0 -8 4 -8t10 4t10 12q20 53 33 70q8 33 29 94q41 53 41 54q41 41 92 77.5t96 77.5q0 8 29 25q29 53 41 61 q-8 37 24 74q45 0 45 -39t25 -59q8 -12 8 -33q12 0 20.5 37t45.5 24q-4 -66 -41 -123q57 -20 16 -61q66 0 152 78q16 0 20 -4q33 41 70 82q4 16 12 28.5t16 32.5h14.5h18.5q-8 8 12 -20q0 -33 13 -37q-25 -90 -53 -140h4h4q29 12 94 58q12 0 16 -17q-16 0 25 13 q-4 -20 -41 -74q-25 -4 -49 -45q-16 4 45 -4q-4 -37 -103 -82v0v0q16 -12 41 -4t37 -8q-25 -25 -41 -54q8 -16 53.5 -5.5t65.5 14.5l21 -9v-4v-4q-53 -74 -115 -110q-41 0 -62 -13v-2v-2q45 -4 54 -12q-12 -45 -65.5 -59.5t-94.5 -26.5q0 -8 4 -16.5t4 -12.5 q-33 -20 -57.5 -49t-65.5 -41q-16 0 -49 10.5t-41 -2.5q20 -29 103 -41q20 -33 4 -49q-16 -4 -25 -12q41 -16 49 -29q-8 -53 -82 -65q0 -8 -2 -22.5t-2 -26.5h-45q-8 0 -10 2t-2 6q-16 -8 -17 -25q12 -12 -4 -33q-29 -12 -55.5 4.5t-46.5 24.5q-4 -57 -41 -61q-8 8 -20 8 q-4 -41 -9 -49q-49 0 -94 24.5t-82 -16.5q20 -61 94 -86q82 -16 168 -49t123 -111q8 -53 17 -82q45 -41 61 -82q45 -16 88 -38.5t92 -34.5q4 0 33 28q12 8 26.5 18.5t30.5 22.5q57 4 119 4h123q70 102 156 21q12 -37 28 -62q41 -57 113 -139t27 -160q-16 -8 -41 0l-2 -2 l-2 -2q20 -25 -17 -29t-45 25q-12 49 -73.5 78t-98.5 61q-37 -12 -71.5 -34.5t-67.5 -38.5q-90 -45 -156 -62q-152 -74 -143 -73q-78 8 -111 36q-164 25 -332 123q-53 0 -61 -45l-18.5 -18.5t-67.5 -83.5q-82 -66 -139 -94q-49 -53 -10.5 -112.5t59.5 -105.5v-67.5 t-12 -67.5v-12v-12q12 -41 8 -88t20 -84q37 -12 41 -57.5t-20 -69.5q-4 -4 -10.5 -6t-10.5 -2q-37 4 -57 8q-25 -16 -53.5 -30.5t-53.5 -27.5q-57 -70 -77 -82q-57 -8 -131 -8zM725 1495q16 25 28.5 49.5t32.5 44.5q29 49 53.5 94.5t53.5 94.5q29 61 65.5 118.5t53.5 126.5 q-16 8 -21 9q-25 0 -45 -4.5t-57 -4.5q0 -12 -4 -32q-12 0 -20.5 -4.5t-16.5 -4.5q-20 -20 -53 -69q-41 -74 -50 -193q-4 -12 -4 -61q-12 -111 -16 -164zM2118 2085h14h14q25 8 51.5 34.5t51.5 47.5q4 8 -13 90q-33 0 -61 -4q4 -4 37 -25q12 -20 12 -41q-12 0 -45 8l-4 -4 h-25q-16 -16 -16 -24q4 0 10 2t15 2l12 -25q-33 -16 -63.5 -18t-59.5 -2q21 -12 70 -41zM1094 2167l6 2t10 2q61 111 127 221.5t123 228.5q-4 0 -29 -16q-70 -45 -131 -78t-102 -98q-41 -29 -54 -131q20 -37 9 -119q21 -4 41 -12zM1667 2552v0h8v2v2h-10h-2zM1647 2576v0h8 q0 8 -4 12.5t-4 8.5v-21zM1659 2613q20 12 29 13h26.5h30.5q-57 32 -86 -13z" />
<glyph unicode="&#xde;" horiz-adv-x="3411" />
<glyph unicode="&#xe0;" horiz-adv-x="4104" />
<glyph unicode="&#xe1;" horiz-adv-x="4104" d="M3240 3002q131 0 221 -90t90 -221v-881q0 -57 -22.5 -116.5t-67.5 -104.5l-1528 -1519q-74 -74 -176 -74t-176 74l-958 962q-37 33 -55.5 80t-18.5 92q0 102 74 176l1519 1528q94 94 221 94h877zM1221 1122l987 987l-148 152l-987 -987zM2531 1802l-147 148l-987 -987 l147 -148zM2855 1491l-148 151l-987 -987l148 -151zM2990 2167q111 0 190.5 80t79.5 190q0 111 -79.5 190.5t-190.5 79.5t-190.5 -79.5t-79.5 -190.5t79.5 -190.5t190.5 -79.5z" />
<glyph unicode="&#x152;" horiz-adv-x="8187" />
<glyph unicode="&#x153;" horiz-adv-x="8196" />
<glyph unicode="&#x160;" horiz-adv-x="4505" d="M2966 2707q111 0 188.5 -77.5t77.5 -184.5v-2191q0 -106 -78 -182t-188 -76h-1831q-111 0 -191 75.5t-80 182.5v2191q0 106 80 184t191 78h229v-135h-94q-82 0 -139.5 -57t-57.5 -139v-1286q0 -78 55.5 -135.5t141.5 -57.5h327q45 0 76 -28.5t39 -73.5v-365 q4 -82 63.5 -133t141.5 -51h905q82 0 139.5 59.5t57.5 140.5v1930q0 82 -57.5 139t-139.5 57h-139v135h283zM1528 422q12 -20 40.5 -41t63.5 -37t63.5 -26.5t37.5 -10.5q0 8 -16.5 26.5t-35 49.5t-35 72t-16.5 98v123q0 66 -45 108.5t-106 42.5h-111q-57 0 -102 14.5t-76 31 t-51.5 28.5t-28.5 12q0 -8 14.5 -30.5t35 -49t45 -55t44.5 -53.5q4 -8 8.5 -10t8.5 -6zM2843 1212h-1557v148h1557v-148zM2843 1569h-1557v143h1557v-143zM2843 1921h-1557v143h1557v-143zM2474 2847q53 0 90 -37t37 -90v-266h-1151v266q0 53 37 90t94 37h217q8 66 84 110.5 t146 44.5q33 0 71.5 -12t71.5 -32.5t57.5 -49.5t28.5 -61h217zM2023 2728q41 0 68 26.5t27 67.5t-27 67.5t-68 26.5t-67.5 -26.5t-26.5 -67.5t26.5 -67.5t67.5 -26.5z" />
<glyph unicode="&#x161;" horiz-adv-x="4100" d="M2048 4q-254 115 -483.5 291t-401.5 419.5t-274.5 559t-102.5 713.5q0 106 6.5 212.5t22.5 221.5q139 25 317.5 90t352.5 147t325.5 174.5t237.5 169.5q86 -78 239.5 -170t332 -174t358.5 -147.5t319 -89.5q20 -119 26.5 -225.5t6.5 -213.5q0 -397 -108.5 -710.5 t-286.5 -555t-409.5 -415.5t-477.5 -297z" />
<glyph unicode="&#x178;" horiz-adv-x="4100" d="M1901 12q-61 20 -13 82q16 8 37 22.5t41 22.5q25 37 43.5 76t46.5 72q-12 57 -47 112.5t-55 108.5q-12 53 -28.5 112.5t-53.5 100.5q-12 29 -12 74q25 90 45 174t77 161q0 41 21 46q0 20 12.5 38.5t12.5 34.5q-57 29 -80 72t-43 100q-37 25 -45 41q-33 4 -74 37 q-45 49 -57 62h-66h-209q-41 16 -98 81q-20 0 -41 21q-57 -16 -86 16q0 37 22.5 43.5t38.5 34.5q25 0 47.5 2t42.5 6q-20 4 -51 4t-51 13q0 4 -2 6t-2 10q29 41 94.5 20.5t93.5 -40.5q4 -12 14.5 -24.5t22.5 -24.5q41 -4 82 8t82 20q-8 66 -25 82q-111 20 -159 33 q-66 -12 -131.5 -2t-130.5 14q-25 16 -41.5 22.5t-77.5 43.5q-12 12 -49 41q-4 -4 -54 -70q-66 -111 -125 -215t-120 -207q-4 -12 -41 -74q-16 -41 -43 -118.5t-84 -73.5q8 49 32.5 96t44.5 92q4 25 9 66q0 123 -2 309t141 256v30.5v31.5q-12 25 -2 43t6 43q20 20 22.5 55 t30.5 43h58q20 41 28 45q0 74 82 160q25 20 53.5 38.5t53.5 38.5q70 33 141.5 57.5t124.5 78.5q12 12 22.5 30.5t26.5 38.5q33 53 33 62q0 57 39 47t35 -47q-45 -45 -82 -119q-41 -25 -66 -82q-33 -29 -51.5 -65.5t-30.5 -69.5q-98 -152 -176 -320q-25 -16 -20 -32 q74 -20 145.5 -22.5t140.5 -31.5q20 -12 33 -28h122.5h127.5q4 8 4 12q-8 16 -33 0q-90 -4 -110 119q-4 8 -17 45q-33 37 -8 49t53 37q-8 74 -8 88v27q29 41 8 90q0 119 152 118q4 -4 14 -6t19 -2q12 4 42.5 16.5t47.5 24.5h22.5h22.5q74 -29 115 -37q8 -20 20 -41 q25 8 92.5 18.5t54.5 -50.5q-20 -4 -45 -5q8 -16 21 -24q0 -20 -10.5 -36.5t-1.5 -37.5q20 -8 57 -24q29 4 41 12q8 -20 -16.5 -47t-16.5 -43q4 -4 12.5 -6t12.5 -15q0 -8 4 -8t10 4t10 12q20 53 33 70q8 33 29 94q41 53 41 54q41 41 92 77.5t96 77.5q0 8 29 25q29 53 41 61 q-8 37 24 74q45 0 45 -39t25 -59q8 -12 8 -33q12 0 20.5 37t45.5 24q-4 -66 -41 -123q57 -20 16 -61q66 0 152 78q16 0 20 -4q33 41 70 82q4 16 12 28.5t16 32.5h14.5h18.5q-8 8 12 -20q0 -33 13 -37q-25 -90 -53 -140h4h4q29 12 94 58q12 0 16 -17q-16 0 25 13 q-4 -20 -41 -74q-25 -4 -49 -45q-16 4 45 -4q-4 -37 -103 -82v0v0q16 -12 41 -4t37 -8q-25 -25 -41 -54q8 -16 53.5 -5.5t65.5 14.5l21 -9v-4v-4q-53 -74 -115 -110q-41 0 -62 -13v-2v-2q45 -4 54 -12q-12 -45 -65.5 -59.5t-94.5 -26.5q0 -8 4 -16.5t4 -12.5 q-33 -20 -57.5 -49t-65.5 -41q-16 0 -49 10.5t-41 -2.5q20 -29 103 -41q20 -33 4 -49q-16 -4 -25 -12q41 -16 49 -29q-8 -53 -82 -65q0 -8 -2 -22.5t-2 -26.5h-45q-8 0 -10 2t-2 6q-16 -8 -17 -25q12 -12 -4 -33q-29 -12 -55.5 4.5t-46.5 24.5q-4 -57 -41 -61q-8 8 -20 8 q-4 -41 -9 -49q-49 0 -94 24.5t-82 -16.5q20 -61 94 -86q82 -16 168 -49t123 -111q8 -53 17 -82q45 -41 61 -82q45 -16 88 -38.5t92 -34.5q4 0 33 28q12 8 26.5 18.5t30.5 22.5q57 4 119 4h123q70 102 156 21q12 -37 28 -62q41 -57 113 -139t27 -160q-16 -8 -41 0l-2 -2 l-2 -2q20 -25 -17 -29t-45 25q-12 49 -73.5 78t-98.5 61q-37 -12 -71.5 -34.5t-67.5 -38.5q-90 -45 -156 -62q-152 -74 -143 -73q-78 8 -111 36q-164 25 -332 123q-53 0 -61 -45l-18.5 -18.5t-67.5 -83.5q-82 -66 -139 -94q-49 -53 -10.5 -112.5t59.5 -105.5v-67.5 t-12 -67.5v-12v-12q12 -41 8 -88t20 -84q37 -12 41 -57.5t-20 -69.5q-4 -4 -10.5 -6t-10.5 -2q-37 4 -57 8q-25 -16 -53.5 -30.5t-53.5 -27.5q-57 -70 -77 -82q-57 -8 -131 -8zM725 1495q16 25 28.5 49.5t32.5 44.5q29 49 53.5 94.5t53.5 94.5q29 61 65.5 118.5t53.5 126.5 q-16 8 -21 9q-25 0 -45 -4.5t-57 -4.5q0 -12 -4 -32q-12 0 -20.5 -4.5t-16.5 -4.5q-20 -20 -53 -69q-41 -74 -50 -193q-4 -12 -4 -61q-12 -111 -16 -164zM2118 2085h14h14q25 8 51.5 34.5t51.5 47.5q4 8 -13 90q-33 0 -61 -4q4 -4 37 -25q12 -20 12 -41q-12 0 -45 8l-4 -4 h-25q-16 -16 -16 -24q4 0 10 2t15 2l12 -25q-33 -16 -63.5 -18t-59.5 -2q21 -12 70 -41zM1094 2167l6 2t10 2q61 111 127 221.5t123 228.5q-4 0 -29 -16q-70 -45 -131 -78t-102 -98q-41 -29 -54 -131q20 -37 9 -119q21 -4 41 -12zM1667 2552v0h8v2v2h-10h-2zM1647 2576v0h8 q0 8 -4 12.5t-4 8.5v-21zM1659 2613q20 12 29 13h26.5h30.5q-57 32 -86 -13z" />
<glyph unicode="&#x17d;" horiz-adv-x="4096" />
<glyph unicode="&#x17e;" horiz-adv-x="4100" d="M442 1835h1184l389 1167l479 -1151h1151l-974 -696l479 -1159l-1098 692l-975 -676l336 1135z" />
<glyph unicode="&#x192;" horiz-adv-x="4100" d="M1114 0h-262v2998h262v-2998zM3244 2150l-1933 -1036v1888z" />
<glyph unicode="&#x2c6;" horiz-adv-x="3411" />
<glyph unicode="&#x2000;" horiz-adv-x="1585" />
<glyph unicode="&#x2001;" horiz-adv-x="3170" />
<glyph unicode="&#x2002;" horiz-adv-x="1585" />
<glyph unicode="&#x2003;" horiz-adv-x="3170" />
<glyph unicode="&#x2004;" horiz-adv-x="1056" />
<glyph unicode="&#x2005;" horiz-adv-x="792" />
<glyph unicode="&#x2006;" horiz-adv-x="528" />
<glyph unicode="&#x2007;" horiz-adv-x="528" />
<glyph unicode="&#x2008;" horiz-adv-x="396" />
<glyph unicode="&#x2009;" horiz-adv-x="634" />
<glyph unicode="&#x200a;" horiz-adv-x="176" />
<glyph unicode="&#x2010;" horiz-adv-x="4104" d="M3473 446q78 -78 78 -186t-78 -190q-78 -78 -186.5 -78t-185.5 78l-770 770q-135 -86 -291 -133.5t-328 -47.5q-242 0 -455 92.5t-370.5 252t-249.5 372.5t-92 455t92 455t249.5 370.5t370.5 249.5t455 92t455 -92t372.5 -249.5t252 -370.5t92.5 -455 q0 -172 -47.5 -327.5t-129.5 -291.5zM2548 1831q0 172 -65.5 325.5t-178.5 266t-266.5 178t-325.5 65.5t-323.5 -65.5t-266 -178t-180 -266t-65.5 -325.5t65.5 -325.5t180 -266.5t266 -178.5t323.5 -65.5t325.5 65.5t266.5 178.5t178.5 266.5t65.5 325.5zM2228 1696v262 h-1052v-262h1052z" />
<glyph unicode="&#x2011;" horiz-adv-x="4104" d="M3473 446q78 -78 78 -186t-78 -190q-78 -78 -186.5 -78t-185.5 78l-770 770q-135 -86 -291 -133.5t-328 -47.5q-242 0 -455 92.5t-370.5 252t-249.5 372.5t-92 455t92 455t249.5 370.5t370.5 249.5t455 92t455 -92t372.5 -249.5t252 -370.5t92.5 -455 q0 -172 -47.5 -327.5t-129.5 -291.5zM2548 1831q0 172 -65.5 325.5t-178.5 266t-266.5 178t-325.5 65.5t-323.5 -65.5t-266 -178t-180 -266t-65.5 -325.5t65.5 -325.5t180 -266.5t266 -178.5t323.5 -65.5t325.5 65.5t266.5 178.5t178.5 266.5t65.5 325.5zM2228 1696v262 h-1052v-262h1052z" />
<glyph unicode="&#x2012;" horiz-adv-x="4104" d="M3473 446q78 -78 78 -186t-78 -190q-78 -78 -186.5 -78t-185.5 78l-770 770q-135 -86 -291 -133.5t-328 -47.5q-242 0 -455 92.5t-370.5 252t-249.5 372.5t-92 455t92 455t249.5 370.5t370.5 249.5t455 92t455 -92t372.5 -249.5t252 -370.5t92.5 -455 q0 -172 -47.5 -327.5t-129.5 -291.5zM2548 1831q0 172 -65.5 325.5t-178.5 266t-266.5 178t-325.5 65.5t-323.5 -65.5t-266 -178t-180 -266t-65.5 -325.5t65.5 -325.5t180 -266.5t266 -178.5t323.5 -65.5t325.5 65.5t266.5 178.5t178.5 266.5t65.5 325.5zM2228 1696v262 h-1052v-262h1052z" />
<glyph unicode="&#x2013;" horiz-adv-x="3411" />
<glyph unicode="&#x2014;" horiz-adv-x="5194" d="M4535 446q106 -78 106 -186t-106 -190q-107 -78 -254.5 -78t-252.5 78l-1049 770q-184 -86 -396.5 -133.5t-447.5 -47.5q-330 0 -620 92.5t-504.5 252t-340 372.5t-125.5 455t125.5 455t340 370.5t504.5 249.5t620 92t620 -92t507.5 -249.5t343.5 -370.5t126 -455 q0 -172 -64.5 -327.5t-176.5 -291.5zM3274 1831q0 172 -89 325.5t-243 266t-363 178t-444 65.5q-234 0 -440.5 -65.5t-362.5 -178t-245.5 -266t-89.5 -325.5t89.5 -325.5t245.5 -266.5t362.5 -178.5t440.5 -65.5q235 0 444 65.5t363 178.5t243 266.5t89 325.5zM2838 1696 v262h-1433v-262h1433z" />
<glyph unicode="&#x2018;" horiz-adv-x="3411" />
<glyph unicode="&#x2019;" horiz-adv-x="3411" />
<glyph unicode="&#x201a;" horiz-adv-x="4096" d="M3285 291q0 -123 -69.5 -209t-176.5 -86h-1974q-106 0 -178 86t-72 209l193 1827q12 94 83.5 161.5t165.5 67.5h132q4 135 57 254t141 207t209 139t256 51t254 -51t209 -139t143.5 -207t53.5 -254h131q94 0 167.5 -67.5t81.5 -161.5l189 -1782zM2269 295l-815 270 l-180 996l-90 -1266h1085zM2462 2347q-8 168 -125 284.5t-285 116.5q-172 0 -288.5 -116.5t-125.5 -284.5h824z" />
<glyph unicode="&#x201c;" horiz-adv-x="3411" />
<glyph unicode="&#x201d;" horiz-adv-x="3411" />
<glyph unicode="&#x201e;" horiz-adv-x="3411" />
<glyph unicode="&#x2020;" d="M2163 3154v-799h749v-495h-749v-811q0 -266 32 -353q25 -82 107 -123q102 -61 242 -61q242 0 475 156v-500q-102 -49 -192.5 -80t-172.5 -51q-160 -41 -356 -41q-225 0 -385 53q-164 53 -283 156q-115 102 -164 217q-20 57 -32.5 139t-12.5 193v1106h-348v446 q188 61 320 176q135 115 213 271q82 160 110 401h447z" />
<glyph unicode="&#x2021;" horiz-adv-x="2048" />
<glyph unicode="&#x2022;" horiz-adv-x="3411" />
<glyph unicode="&#x2026;" horiz-adv-x="12312" d="M2052 2048q197 193 373 299.5t360 106.5q201 0 346.5 -59.5t239.5 -164t139 -246t45 -309.5q0 -152 -65.5 -299t-170 -286.5t-241.5 -266.5t-276 -237q-332 -258 -750 -488q-422 221 -754 475q-143 111 -276 238t-239.5 266.5t-170 291t-63.5 306.5q0 168 55 309.5 t157.5 246t248 164t325.5 59.5q184 0 358.5 -104.5t358.5 -301.5zM6156 2048q197 193 373 299.5t360 106.5q201 0 346.5 -59.5t239.5 -164t139.5 -246t45.5 -309.5q0 -152 -66 -299t-170 -286.5t-241.5 -266.5t-276.5 -237q-332 -258 -750 -488q-422 221 -753 475 q-143 111 -276.5 238t-240 266.5t-170 291t-63.5 306.5q0 168 55.5 309.5t157.5 246t247.5 164t325.5 59.5q184 0 358.5 -104.5t358.5 -301.5zM10260 2048q197 193 373 299.5t361 106.5q201 0 346 -59.5t239.5 -164t139.5 -246t45 -309.5q0 -152 -65.5 -299t-170 -286.5 t-242 -266.5t-276.5 -237q-332 -258 -750 -488q-422 221 -753 475q-143 111 -276.5 238t-240 266.5t-170 291t-63.5 306.5q0 168 55.5 309.5t158 246t247.5 164t326 59.5q184 0 358 -104.5t358 -301.5z" />
<glyph unicode="&#x202f;" horiz-adv-x="634" />
<glyph unicode="&#x2030;" horiz-adv-x="3411" />
<glyph unicode="&#x2039;" d="M2789 2998l148 -164l-1450 -1339l1450 -1335l-148 -164l-1626 1503z" />
<glyph unicode="&#x203a;" d="M2937 1499l-1626 -1503l-148 164l1454 1335l-1454 1339l148 164z" />
<glyph unicode="&#x205f;" horiz-adv-x="792" />
<glyph unicode="&#x20ac;" horiz-adv-x="4100" d="M1610 201q41 0 69.5 -29t28.5 -70t-28.5 -69.5t-69.5 -28.5h-492q-41 0 -67.5 28.5t-26.5 69.5t26.5 70t67.5 29h492zM2929 201q45 0 71.5 -29t26.5 -70t-26.5 -69.5t-71.5 -28.5h-488q-45 0 -71.5 28.5t-26.5 69.5t26.5 70t71.5 29h488zM1597 2081q-37 29 0 65 q33 33 66 0l152 -151q16 -12 16 -32.5t-16 -33.5q-12 -16 -33 -16t-33 16zM1749 1475q12 16 32.5 16t33.5 -16q16 -12 16 -33t-16 -33l-152 -152q-12 -12 -32.5 -12t-33.5 12q-37 37 0 66zM1720 1700q0 -45 -45 -45h-213q-49 0 -49 45q0 49 49 49h213q45 0 45 -49z M2040 2023q-45 0 -45 45v213q0 49 45 50q49 0 49 -50v-213q0 -45 -49 -45zM2335 1929q-12 -16 -33 -16t-33 16q-16 12 -16 32.5t16 33.5l148 151q33 29 69 0q29 -37 0 -65zM2486 1323q29 -29 0 -66q-37 -29 -69 0l-148 152q-16 12 -16 32.5t16 33.5q12 16 32.5 16t33.5 -16z M2363 1700q0 49 45 49h213q20 0 35 -14.5t15 -34.5t-14.5 -32.5t-35.5 -12.5h-213q-45 0 -45 45zM2040 1380q49 0 49 -45v-213q0 -49 -49 -49q-45 0 -45 49v213q0 45 45 45zM3068 2998q156 0 264.5 -106.5t108.5 -261.5v-1864q0 -156 -108.5 -264.5t-264.5 -108.5h-2036 q-156 0 -264.5 108.5t-108.5 264.5v1864q0 156 109 262t264 106h2036zM2040 975q147 0 278 57.5t229.5 155.5t156 229t57.5 279q0 147 -57.5 278t-156 229.5t-229.5 156t-278 57.5t-278.5 -57.5t-229.5 -156t-153.5 -229.5t-55.5 -278t55.5 -278.5t153.5 -229.5 t229.5 -155.5t278.5 -57.5zM3047 2847h-1830q-164 0 -279 -115t-115 -278v-414h131v414q0 106 78 184t185 78h1830v131zM2040 1937q102 0 171.5 -71.5t69.5 -169.5t-69.5 -168t-171.5 -70q-98 0 -168 69.5t-70 168.5q0 98 70 169.5t168 71.5z" />
<glyph unicode="&#x2122;" horiz-adv-x="8187" />
<glyph unicode="&#xe000;" horiz-adv-x="2682" d="M0 2683h2683v-2683h-2683v2683z" />
<glyph d="M2839 0l-1586 1585l1586 1585v-528l-1057 -1057l1057 -1057v-528z" />
<glyph d="M1253 528l1057 1057l-1057 1057v528l1586 -1585l-1586 -1585v528z" />
<glyph horiz-adv-x="4096" d="M1610 1434q0 -119 -43 -219.5t-121 -174t-178.5 -116.5t-214.5 -43q-119 0 -219.5 43t-174 116.5t-118.5 174t-45 219.5q0 115 45 215t118.5 178t174 121t219.5 43q115 0 215 -43t178 -121t121 -178t43 -215zM3600 1434q0 -115 -43 -213.5t-116.5 -172t-172 -116.5 t-212.5 -43q-115 0 -211.5 43t-170 116.5t-116.5 172t-43 213.5t43 211t116.5 171.5t170 118.5t211.5 43t213 -43t171.5 -118.5t116.5 -171.5t43 -211z" />
<glyph horiz-adv-x="2048" />
<glyph horiz-adv-x="2048" />
<glyph horiz-adv-x="2048" />
<glyph d="M2273 541q0 -246 -174 -389.5t-452 -143.5h-1332q-45 86 -77.5 184.5t-61.5 192.5h1335q61 0 125 2t138 10q20 8 42.5 20.5t30.5 20.5q29 29 29 82t-20.5 84t-65.5 45.5t-116.5 24.5t-174.5 26q-33 8 -59.5 16.5t-50.5 20.5q-86 33 -143.5 86.5t-88.5 112.5t-43 122.5 t-12 117.5q0 123 45 233.5t123 190t182 127t223 47.5h877q201 0 307.5 -168t106.5 -488v-520q0 -57 45 -104.5t90 -79.5q49 -37 118 -37q33 0 80 8t80 29q82 61 94 184v2454q115 -82 205 -182.5t172 -215.5v-2044q0 -131 -39 -233.5t-106.5 -176t-157.5 -120.5t-192 -64 q-29 -4 -57.5 -6t-61.5 -2t-59.5 2t-55.5 6q-102 16 -198.5 63.5t-170 121t-118.5 176t-45 233.5v553q0 123 -90.5 178.5t-200.5 55.5h-541q-127 0 -192.5 -57.5t-65.5 -143.5q0 -61 57.5 -86t143.5 -41t186.5 -36.5t186.5 -72t143 -149.5t57 -270z" />
<glyph />
<glyph d="M2048 2998q307 0 579.5 -118.5t475 -321.5t321.5 -475.5t119 -579.5q0 -311 -119 -583.5t-321.5 -475t-475 -319.5t-579.5 -117q-311 0 -583.5 117t-475.5 319.5t-319.5 475t-116.5 583.5q0 307 116.5 579.5t319.5 475.5t475.5 321.5t583.5 118.5zM2994 2310 q-98 -147 -266 -272t-393 -219q29 -57 53.5 -119t48.5 -123q115 8 240 12t256 4h182t174 -8q-16 209 -92 391t-203 334zM2048 2748q-82 0 -157.5 -10t-149.5 -31q131 -135 256 -305t231 -374q201 86 356.5 194.5t258.5 239.5q-164 135 -365 210.5t-430 75.5zM1483 2613 q-238 -123 -406 -331.5t-225 -471.5l25 -4q41 -4 77.5 -4h77.5q258 0 497.5 35t452.5 100q-115 201 -239.5 371t-259.5 305zM803 1503q0 -238 84 -446.5t227 -376.5q135 266 381 477t569 346q53 20 111 33q-20 49 -43 96t-43 92q-217 -70 -465 -116.5t-518 -46.5h-303v-58z M2048 258q229 0 442 82q-20 147 -46.5 299t-71.5 307q-25 98 -55.5 194.5t-63.5 190.5q-41 -8 -74 -20.5t-61 -20.5q-283 -131 -496 -327.5t-336 -442.5q156 -123 350.5 -192.5t411.5 -69.5zM2720 455q233 152 382.5 387t182.5 522q-184 12 -401 12q-197 0 -369 -12 q25 -70 47.5 -143.5t42.5 -151.5q41 -156 68 -309t47 -305z" />
</font>
</defs>
</svg>
